当前位置: 首页 >> 欧美电影 >> 漫长的一天结束了[中文字幕].The.Long.Day.Closes.1080p.1992.BluRay.x265.10bit.FLAC.2.0 7.83GB >> 正文

漫长的一天结束了[中文字幕].The.Long.Day.Closes.1080p.1992.BluRay.x265.10bit.FLAC.2.0 7.83GB

2021年10月09日 09:58:32     电影发布:来源于网络     电影分类:欧美电影     评论(0)    

漫长的一天结束了[中文字幕].The.Long.Day.Closes.1080p.1992.BluRay.x265.10bit.FLAC.2.0 7.83GB 家庭片 传记 剧情片 欧美电影  第1张

◎译 名 漫长的一天结束了 / 长日将尽

◎片 名 The Long Day Closes

◎年 代 1992

◎产 地 英国

◎类 别 剧情 / 家庭 / 传记

◎语 言 英语

◎上映日期 1992-05-22(英国)

◎IMDb链接 https://www.imdb.com/title/tt0104753/

◎豆瓣评分 7.6/10 (786人评价)

◎豆瓣链接 https://movie.douban.com/subject/2042560/

◎片 长 85分钟

◎导 演 特伦斯·戴维斯 Terence Davies (id:1041482)

◎编 剧 特伦斯·戴维斯 Terence Davies (id:1041482)

◎演 员 玛乔丽·耶茨 Marjorie Yates (id:1164174)

尼古拉斯·拉蒙特 Nicholas Lamont (id:1421057)

Tina Malone Tina Malone (id:1123091)

帕特里西亚·莫里森 Patricia Morison (id:1032510)

奥利维亚·斯图尔特 Olivia Stewart (id:1298444)

迈克尔·库尔特 Michael Coulter (id:1281370)

William Diver William Diver (id:1282485)

Doreen Jones Doreen Jones (id:1287867)

莫妮卡·豪威 Monica Howe (id:1287012)

艾琳·西顿 Aileen Seaton (id:1297115)

◎标 签 英国 / 英国电影 / 特伦斯·戴维斯 / 1992 / 传记 / TerenceDavies / 1990s / 剧情

◎简 介

镜头聚焦在一个名叫巴德(Leigh McCormack 饰)的男孩身上,巴德很早就失去了父亲,和母亲(Marjorie Yates 饰)以及哥哥一起过着相依为命的生活。整个童年时代在巴德的回忆里都笼罩在孤独和寂寞之中,在学校里,他一个人上课,一个人发呆,一个人回家,还要是不是的提防班上强壮的男生对他的威胁和嘲笑。

回家后,巴德也总是一个人待着,母亲建议他多和朋友们在一起玩,但她并不知道的是,巴德甚至都没有一个能真正称得上朋友的伙伴。巴德整日里将时间花在观察凝听这个世界和胡思乱想上,入夜,可怕的噩梦便会找上门来。就这样日复一日,巴德长大了,当再度回忆这段平凡而又独特的童年时,巴德会有怎样的感受呢?

◎获奖情况 (共1项)

第45届戛纳电影节 (1992)

主竞赛单元 金棕榈奖(提名)

└──特伦斯·戴维斯 (id:1041482)

  1. ##### MediaInfo ######

  2. General

  3. Unique ID : 301700875218475124219398249809818177349 (0xE2F979987E3AD20B74FEEB37A1204F45)

  4. Complete name : [email protected]BBQDDQ.COM.mkv

  5. Format : Matroska

  6. Format version : Version 4

  7. File size : 7.83 GiB

  8. Duration : 1 h 25 min

  9. Overall bit rate mode : Variable

  10. Overall bit rate : 13.1 Mb/s

  11. Movie name : The Long Day Closes

  12. Encoded date : UTC 2021-10-07 09:07:23

  13. Writing application : mkvmerge v61.0.0 ('So') 64-bit

  14. Writing library : libebml v1.4.2 + libmatroska v1.6.4

  15. Cover : Yes

  16. Attachments : cover.jpg


  17. Video

  18. ID : 1

  19. Format : HEVC

  20. Format/Info : High Efficiency Video Coding

  21. Format profile : Main [email protected]@Main

  22. Codec ID : V_MPEGH/ISO/HEVC

  23. Duration : 1 h 25 min

  24. Bit rate : 11.7 Mb/s

  25. Width : 1 916 pixels

  26. Height : 1 038 pixels

  27. Display aspect ratio : 1.85:1

  28. Frame rate mode : Constant

  29. Frame rate : 23.976 (24000/1001/53354) FPS

  30. Color space : YUV

  31. Chroma subsampling : 4:2:0

  32. Bit depth : 10 bits

  33. Bits/(Pixel*Frame) : 0.246

  34. Stream size : 7.00 GiB (89%)

  35. Writing library : x265 3.5+2-g2b25c9ba0+45:[Windows][GCC 10.2.0][64 bit] Yuuki 10bit+8bit+12bit

  36. Encoding settings : rc=crf / crf=19.0000 / qcomp=0.70 / qpstep=4 / stats-write=0 / stats-read=0 / no-lossless / no-cu-lossless / aq-mode=3 / aq-strength=0.70 / cbqpoffs=0 / crqpoffs=0 / ipratio=1.40 / pbratio=1.30 / psy-rd=2.00 / psy-rdoq=0.00 / deblock=0:0 / ref=6 / limit-refs=1 / no-limit-modes / bframes=8 / b-adapt=2 / bframe-bias=0 / b-pyramid / b-intra / weightp / weightb / min-keyint=24 / max-keyint=240 / rc-lookahead=24 / gop-lookahead=0 / NTMzNTQ=uuDQuD2mJt9fsCf / scenecut=40 / hist-scenecut=0 / radl=0 / max-cu-size=64 / min-cu-size=8 / me=3 / subme=7 / merange=48 / rdoq-level=0 / rd=4 / rdpenalty=0 / dynamic-rd=0.00 / no-rd-refine / ----- / cutree / sao / no-rect / no-amp / no-open-gop / wpp / no-pmode / pme / no-psnr / no-ssim / nr-intra=0 / nr-inter=0 / no-constrained-intra / no-strong-intra-smoothing / max-tu-size=32 / tu-inter-depth=1 / tu-intra-depth=1 / limit-tu=0 / qg-size=32 / qpmax=69 / qpmin=0 / ----- / cpuid=533541111039 / frame-threads=4 / numa-pools=+ / log-level=2 / input-csp=1 / input-res=1916x1038 / interlace=0 / level-idc=0 / high-tier=1 / uhd-bd=0 / no-allow-non-conformance / no-repeat-headers / aud / no-hrd / info / hash=0 / no-temporal-layers / lookahead-slices=0 / no-splice / no-intra-refresh / no-ssim-rd / signhide / no-tskip / max-merge=3 / temporal-mvp / no-frame-dup / no-hme / no-analyze-src-pics / no-sao-non-deblock / selective-sao=4 / early-skip / rskip / no-fast-intra / no-tskip-fast / no-splitrd-skip / zone-count=0 / no-strict-cbr / no-rc-grain / no-const-vbv / sar=0 / overscan=0 / videoformat=5 / range=0 / colorprim=2 / transfer=2 / colormatrix=2 / chromaloc=0 / display-window=0 / cll=0,0 / min-luma=0 / max-luma=1023 / log2-max-poc-lsb=8 / vui-timing-info / vui-hrd-info / slices=1 / no-opt-qp-pps / no-opt-ref-list-length-pps / no-multi-pass-opt-rps / scenecut-bias=0.05 / hist-threshold=0.03 / no-opt-cu-delta-qp / no-aq-motion / no-hdr10 / no-hdr10-opt / no-dhdr10-opt / no-idr-recovery-sei / analysis-reuse-level=0 / analysis-save-reuse-level=0 / analysis-load-reuse-level=0 / scale-factor=0 / refine-intra=0 / refine-inter=0 / refine-mv=1 / refine-ctu-distortion=0 / no-limit-sao / ctu-info=0 / no-lowpass-dct / refine-analysis-type=0 / copy-pic=1 / max-ausize-factor=1.0 / no-dynamic-refine / no-single-sei / no-hevc-aq / no-svt / no-field / qp-adaptation-range=1.00 / scenecut-aware-qp=0conformance-window-offsets / right=0 / bottom=0 / NTMzNTQ= / decoder-max-rate=0 / no-vbv-live-multi-pass

  37. Default : Yes

  38. Forced : No


  39. Audio

  40. ID : 2

  41. Format : FLAC

  42. Format/Info : Free Lossless Audio Codec

  43. Codec ID : A_FLAC

  44. Duration : 1 h 25 min

  45. Bit rate mode : Variable

  46. Bit rate : 1 324 kb/s

  47. Channel(s) : 2 channels

  48. Channel layout : L R

  49. Sampling rate : 48.0 kHz

  50. Frame rate : 11.719 FPS (4096 SPF)

  51. Bit depth : 24 bits

  52. Compression mode : Lossless

  53. Stream size : 810 MiB (10%)

  54. Writing library : libFLAC 1.2.1 (UTC 2007-09-17)

  55. Language : English

  56. Default : Yes

  57. Forced : No


  58. Text #1

  59. ID : 3

  60. ID in the original source medium : 4609 (0x1201)

  61. Format : PGS

  62. Muxing mode : zlib

  63. Codec ID : S_HDMV/PGS

  64. Codec ID/Info : Picture based subtitle format used on BDs/HD-DVDs

  65. Duration : 1 h 18 min

  66. Bit rate : 27.7 kb/s

  67. Count of elements : 1354

  68. Stream size : 15.5 MiB (0%)

  69. Title : chs&eng

  70. Language : Chinese

  71. Default : Yes

  72. Forced : No

  73. Original source medium : Blu-ray


  74. Text #2

  75. ID : 4

  76. ID in the original source medium : 4610 (0x1202)

  77. Format : PGS

  78. Muxing mode : zlib

  79. Codec ID : S_HDMV/PGS

  80. Codec ID/Info : Picture based subtitle format used on BDs/HD-DVDs

  81. Duration : 1 h 18 min

  82. Bit rate : 28.0 kb/s

  83. Count of elements : 1354

  84. Stream size : 15.7 MiB (0%)

  85. Title : cht&eng

  86. Language : Chinese

  87. Default : No

  88. Forced : No

  89. Original source medium : Blu-ray


  90. Text #3

  91. ID : 5

  92. ID in the original source medium : 4611 (0x1203)

  93. Format : PGS

  94. Muxing mode : zlib

  95. Codec ID : S_HDMV/PGS

  96. Codec ID/Info : Picture based subtitle format used on BDs/HD-DVDs

  97. Duration : 1 h 18 min

  98. Bit rate : 16.2 kb/s

  99. Count of elements : 1354

  100. Stream size : 9.10 MiB (0%)

  101. Title : chs

  102. Language : Chinese

  103. Default : No

  104. Forced : No

  105. Original source medium : Blu-ray


  106. Text #4

  107. ID : 6

  108. ID in the original source medium : 4612 (0x1204)

  109. Format : PGS

  110. Muxing mode : zlib

  111. Codec ID : S_HDMV/PGS

  112. Codec ID/Info : Picture based subtitle format used on BDs/HD-DVDs

  113. Duration : 1 h 18 min

  114. Bit rate : 15.9 kb/s

  115. Count of elements : 1354

  116. Stream size : 8.94 MiB (0%)

  117. Title : cht

  118. Language : Chinese

  119. Default : No

  120. Forced : No

  121. Original source medium : Blu-ray


  122. Text #5

  123. ID : 7

  124. ID in the original source medium : 4608 (0x1200)

  125. Format : PGS

  126. Muxing mode : zlib

  127. Codec ID : S_HDMV/PGS

  128. Codec ID/Info : Picture based subtitle format used on BDs/HD-DVDs

  129. Duration : 1 h 22 min

  130. Bit rate : 38.9 kb/s

  131. Count of elements : 1755

  132. Stream size : 23.0 MiB (0%)

  133. Title : eng

  134. Language : English

  135. Default : No

  136. Forced : No

  137. Original source medium : Blu-ray


  138. Menu

  139. 00:00:00.000 : Chapter 01

  140. 00:06:25.301 : Chapter 02

  141. 00:12:41.010 : Chapter 03

  142. 00:15:59.959 : Chapter 04

  143. 00:22:42.986 : Chapter 05

  144. 00:30:15.271 : Chapter 06

  145. 00:35:14.028 : Chapter 07

  146. 00:39:46.092 : Chapter 08

  147. 00:48:45.923 : Chapter 09

  148. 00:52:19.386 : Chapter 10

  149. 01:00:58.404 : Chapter 11

  150. 01:09:09.770 : Chapter 12

  151. 01:13:52.094 : Chapter 13


文件下载


除非特别注明,本文『漫长的一天结束了[中文字幕].The.Long.Day.Closes.1080p.1992.BluRay.x265.10bit.FLAC.2.0 7.83GB』来源于互联网机器人自动抓取,非本站原创。 浮游电影网不对本文拥有版权,如有侵犯,请联系邮箱:fuyouu#yandex.com[#换成@]投诉。我们会在15个工作日内删除。 但烦请转载时请标明出处:“本文转载于『浮游电影网』,原文地址:https://www.fuyouu.com/14815.html

评论吧骚年!

发表你的见解   

昵称*

E-mail*(建议输入,以便收到博主回复的提示邮件)

验证码*

您可以使用eMule或eMule Mod(Windows)、aMule(Win、Linux、Mac)等软件下载eD2k链接。。
eMule收藏集(.emulecollection)文件是您选中的所有链接的列表文件。eMule可以直接下载它们。
按住SHIFT键选择可以选中多个选择框。
可用文件名和大小选择器来选择文件。
文件名选择器帮您根据文件名称或后缀来选择文件。不分大小写。
符号使用:
和:空格( )、+
不包含:-
或:|
转义:一对英文引号("");
匹配开头:^
匹配结尾:$
例如:
选中所有名称中包含有“eMule”或“0.49c”字眼,但不包含有“exe”字眼的:emule|0.49c -exe
选中所有名称的开头是“eMule”,结尾是“0.49c”的:^emule 0.49c$
选中所有名称中带有“eMule 0.49c”的(必须是“eMule 0.49c”,中间没有别的字符,不能是“eMule fake 0.49c”),需要转义:"emule 0.49c"
大小选择器帮您根据文件大小选择文件。