当前位置: 首页 >> 国产电影 >> 四大名捕[国粤语配音/中文字幕].The.Four.2012.1080p.BluRay.x265.10bit.DTS.2Audio 7.96GB >> 正文

四大名捕[国粤语配音/中文字幕].The.Four.2012.1080p.BluRay.x265.10bit.DTS.2Audio 7.96GB

2021年10月08日 08:20:53     电影发布:来源于网络     电影分类:国产电影     评论(0)    

四大名捕[国粤语配音/中文字幕].The.Four.2012.1080p.BluRay.x265.10bit.DTS.2Audio 7.96GB 武侠片 悬疑片 古装片 爱情片 动作片 国产电影  第1张

◎译  名 四大名捕 / The Four
◎年  代 2012
◎产  地 中国大陆 / 中国香港
◎类  别 动作 / 爱情 / 悬疑 / 武侠 / 古装
◎语  言 汉语普通话 / 粤语
◎上映日期 2012-07-12(中国大陆/中国香港)
◎IMDb链接 https://www.imdb.com/title/tt2204340/
◎豆瓣评分 5.3/10 (107794人评价)
◎豆瓣链接 https://movie.douban.com/subject/6124012/
◎片  长 118分钟
◎导  演 陈嘉上 Gordon Chan (id:1274245)
       秦小珍 Janet Chun (id:1274236)
◎编  剧 温瑞安 Ruian Wen (id:1321279)
       陈嘉上 Gordon Chan (id:1274245)
       王思敏 Sze Man Wang (id:1324934)
       谭广源 Frankie Tam (id:1328638)
       张小北 Xiaobei Zhang (id:1317950)
◎演  员 邓超 Chao Deng (id:1274235)
       刘亦菲 Yifei Liu (id:1049732)
       郑中基 Ronald Cheng (id:1032940)
       邹兆龙 Collin Chou (id:1022821)
       黄秋生 Anthony Wong Chau-Sang (id:1050076)
       江一燕 Yiyan Jiang (id:1274286)
       吴秀波 Xiubo Wu (id:1275317)
       邓萃雯 Sheren Tang (id:1160170)
       成泰燊 Taishen Cheng (id:1196361)
       吴映洁 Gemma Wu (id:1313603)
       包贝尔 Bei'er Bao (id:1315866)
       木幡龙 Ryu Kohata (id:1313726)
       田启文 Kai Man Tin (id:1315882)
       方安娜 Anna Fang (id:1313869)
       李子雄 Waise Lee (id:1037662)
       苗驰 Chi Miao (id:1327729)
       向恬冉 Tianran Xiang (id:1336304)
       唐文龙 Michael Tong (id:1043564)
       唐治平 Zhiping Tang (id:1275419)
       刘长德 Changde Liu (id:1317982)
       张颂文 Songwen Zhang (id:1314329)
       李瑞雪 Ruixue Li (id:1357821)
       李紫菻 Zilin Li (id:1390449)
       李欣烨 Xinye Li (id:1356952)
       李宛真 Yuki Li (id:1351244)
       邱晔 Angela Qiu (id:1331015)
       李奕泽 Yize Li (id:1390450)
       黄泰来 Taylor Wong (id:1322476)
       黎耀辉 Yiu-Fai Lai (id:1289265)
       缪健辉 Tony Miu (id:1378532)
       余家安 Bruce Yu (id:1301555)
       蔡彦菁 Maggie Choy (id:1426247)
       刘士杨 Shiyang Liu (id:1446388)
       谷轩昭 Huan-Chiu Ku (id:1289063)

◎标  签 武侠 / 动作 / 中国 / 古装 / 香港 / 奇幻 / 国产 / 剧情

◎简  介
  巍巍京城,气势磅礴。时有捕神(成泰燊 饰)率领的六扇门,高手云集,作风凌厉,成为朝廷只手遮天的人物。是时京城伪造铜币泛滥,六扇门头号捕快冷血(邓超 饰)策划抓捕疑犯,结果在醉月楼与另一组人马大打出手。对方是诸葛正我(黄秋生 饰)统领的神侯府,手下更有无情(刘亦菲 饰)、铁手(邹兆龙 饰)等身怀绝技的高手。捕神对神侯府的目的颇有猜疑,遂假意赶走冷血,令其潜入神侯府调查诸葛之真实目的。在此之后,冷血与无情、铁手以及江湖中人追命(郑中基 饰)组成四大名捕,声名显赫,而来自六扇门的姬遥花(江一燕 饰)似乎又暗藏不可告人的秘密与阴谋……                                    
                                本片根据温瑞安同名武侠小说改编。

◎获奖情况 (共4项)
  第3届豆瓣电影鑫像奖 (2013)
  豆渣单元 最渣影片(华语)(提名)
  豆渣单元 最渣导演(华语)(提名)
  豆渣单元 最渣男演员(华语)(提名)
   └──邓超 (id:1274235)
  豆渣单元 最渣女演员(华语)(提名)
   └──刘亦菲 (id:1049732)

  1. ##### MediaInfo ######

  2. General

  3. Unique ID                                : 261731021239716226357396006943445875374 (0xC4E78FA56EEDF70679C59DFEA461FAAE)

  4. Complete name                            : [email protected]M.mkv

  5. Format                                   : Matroska

  6. Format version                           : Version 4

  7. File size                                : 7.96 GiB

  8. Duration                                 : 1 h 58 min

  9. Overall bit rate                         : 9 654 kb/s

  10. Movie name                               : The Four 2012

  11. Encoded date                             : UTC 2021-10-07 01:33:47

  12. Writing application                      : mkvmerge v57.0.0 ('Till The End') 64-bit

  13. Writing library                          : libebml v1.4.2 + libmatroska v1.6.4

  14. Cover                                    : Yes

  15. Attachments                              : cover.jpg


  16. Video

  17. ID                                       : 1

  18. Format                                   : HEVC

  19. Format/Info                              : High Efficiency Video Coding

  20. Format profile                           : Main [email protected]@Main

  21. Codec ID                                 : V_MPEGH/ISO/HEVC

  22. Duration                                 : 1 h 58 min

  23. Bit rate                                 : 7 485 kb/s

  24. Width                                    : 1 920 pixels

  25. Height                                   : 804 pixels

  26. Display aspect ratio                     : 2.40:1

  27. Frame rate mode                          : Constant

  28. Frame rate                               : 24.000 FPS

  29. Color space                              : YUV

  30. Chroma subsampling                       : 4:2:0

  31. Bit depth                                : 10 bits

  32. Bits/(Pixel*Frame)                       : 0.202

  33. Stream size                              : 6.17 GiB (78%)

  34. Writing library                          : x265 3.5+2-g2b25c9ba0+45:[Windows][GCC 10.2.0][64 bit] Yuuki 10bit+8bit+12bit

  35. Encoding settings                        : rc=crf / crf=18.0000 / qcomp=0.60 / qpstep=4 / stats-write=0 / stats-read=0 / no-lossless / no-cu-lossless / aq-mode=3 / aq-strength=0.90 / cbqpoffs=0 / crqpoffs=0 / ipratio=1.40 / pbratio=1.30 / psy-rd=2.00 / psy-rdoq=0.00 / deblock=0:0 / ref=6 / limit-refs=1 / no-limit-modes / bframes=8 / b-adapt=2 / bframe-bias=0 / b-pyramid / b-intra / weightp / weightb / min-keyint=24 / max-keyint=240 / rc-lookahead=24 / gop-lookahead=0 / NTMzNTQ=uuDQuD2mJt9fsCf / scenecut=40 / hist-scenecut=0 / radl=0 / max-cu-size=64 / min-cu-size=8 / me=3 / subme=7 / merange=48 / rdoq-level=0 / rd=4 / rdpenalty=0 / dynamic-rd=0.00 / no-rd-refine / ----- / cutree / sao / no-rect / no-amp / no-open-gop / wpp / no-pmode / no-pme / no-psnr / no-ssim / nr-intra=0 / nr-inter=0 / no-constrained-intra / no-strong-intra-smoothing / max-tu-size=32 / tu-inter-depth=1 / tu-intra-depth=1 / limit-tu=0 / qg-size=32 / qpmax=69 / qpmin=0 / ----- / cpuid=533541111039 / frame-threads=4 / numa-pools=+ / log-level=2 / input-csp=1 / input-res=1920x804 / interlace=0 / level-idc=0 / high-tier=1 / uhd-bd=0 / no-allow-non-conformance / repeat-headers / aud / no-hrd / info / hash=0 / no-temporal-layers / lookahead-slices=0 / no-splice / no-intra-refresh / no-ssim-rd / signhide / no-tskip / max-merge=3 / temporal-mvp / no-frame-dup / no-hme / no-analyze-src-pics / no-sao-non-deblock / selective-sao=4 / early-skip / rskip / no-fast-intra / no-tskip-fast / no-splitrd-skip / zone-count=0 / no-strict-cbr / no-rc-grain / no-const-vbv / sar=0 / overscan=0 / videoformat=5 / range=0 / colorprim=2 / transfer=2 / colormatrix=2 / chromaloc=0 / display-window=0 / cll=0,0 / min-luma=0 / max-luma=1023 / log2-max-poc-lsb=8 / vui-timing-info / vui-hrd-info / slices=1 / no-opt-qp-pps / no-opt-ref-list-length-pps / no-multi-pass-opt-rps / scenecut-bias=0.05 / hist-threshold=0.03 / no-opt-cu-delta-qp / no-aq-motion / no-hdr10 / no-hdr10-opt / no-dhdr10-opt / no-idr-recovery-sei / analysis-reuse-level=0 / analysis-save-reuse-level=0 / analysis-load-reuse-level=0 / scale-factor=0 / refine-intra=0 / refine-inter=0 / refine-mv=1 / refine-ctu-distortion=0 / no-limit-sao / ctu-info=0 / no-lowpass-dct / refine-analysis-type=0 / copy-pic=1 / max-ausize-factor=1.0 / no-dynamic-refine / no-single-sei / no-hevc-aq / no-svt / no-field / qp-adaptation-range=1.00 / scenecut-aware-qp=0conformance-window-offsets / right=0 / bottom=0 / NTMzNTQ= / decoder-max-rate=0 / no-vbv-live-multi-pass

  36. Default                                  : Yes

  37. Forced                                   : No


  38. Audio #1

  39. ID                                       : 2

  40. Format                                   : DTS

  41. Format/Info                              : Digital Theater Systems

  42. Codec ID                                 : A_DTS

  43. Duration                                 : 1 h 58 min

  44. Bit rate mode                            : Constant

  45. Bit rate                                 : 1 509 kb/s

  46. Channel(s)                               : 6 channels

  47. Channel layout                           : C L R Ls Rs LFE

  48. Sampling rate                            : 48.0 kHz

  49. Frame rate                               : 93.750 FPS (512 SPF)

  50. Bit depth                                : 16 bits

  51. Compression mode                         : Lossy

  52. Stream size                              : 1.24 GiB (16%)

  53. Title                                    : Cantonese

  54. Language                                 : Chinese

  55. Default                                  : No

  56. Forced                                   : No


  57. Audio #2

  58. ID                                       : 3

  59. ID in the original source medium         : 4353 (0x1101)

  60. Format                                   : AC-3

  61. Format/Info                              : Audio Coding 3

  62. Commercial name                          : Dolby Digital

  63. Codec ID                                 : A_AC3

  64. Duration                                 : 1 h 58 min

  65. Bit rate mode                            : Constant

  66. Bit rate                                 : 640 kb/s

  67. Channel(s)                               : 6 channels

  68. Channel layout                           : L R C LFE Ls Rs

  69. Sampling rate                            : 48.0 kHz

  70. Frame rate                               : 31.250 FPS (1536 SPF)

  71. Compression mode                         : Lossy

  72. Stream size                              : 541 MiB (7%)

  73. Title                                    : Mandarin

  74. Language                                 : Chinese

  75. Service kind                             : Complete Main

  76. Default                                  : Yes

  77. Forced                                   : No

  78. Original source medium                   : Blu-ray


  79. Text #1

  80. ID                                       : 4

  81. ID in the original source medium         : 4608 (0x1200)

  82. Format                                   : PGS

  83. Muxing mode                              : zlib

  84. Codec ID                                 : S_HDMV/PGS

  85. Codec ID/Info                            : Picture based subtitle format used on BDs/HD-DVDs

  86. Duration                                 : 1 h 53 min

  87. Bit rate                                 : 20.8 kb/s

  88. Count of elements                        : 2146

  89. Stream size                              : 16.8 MiB (0%)

  90. Title                                    : cht

  91. Language                                 : Chinese

  92. Default                                  : No

  93. Forced                                   : No

  94. Original source medium                   : Blu-ray


  95. Text #2

  96. ID                                       : 5

  97. ID in the original source medium         : 4609 (0x1201)

  98. Format                                   : PGS

  99. Muxing mode                              : zlib

  100. Codec ID                                 : S_HDMV/PGS

  101. Codec ID/Info                            : Picture based subtitle format used on BDs/HD-DVDs

  102. Duration                                 : 1 h 53 min

  103. Bit rate                                 : 26.2 kb/s

  104. Count of elements                        : 2154

  105. Stream size                              : 21.2 MiB (0%)

  106. Language                                 : English

  107. Default                                  : No

  108. Forced                                   : No

  109. Original source medium                   : Blu-ray


  110. Menu

  111. 00:00:00.000                             : Chapter 01

  112. 00:09:14.916                             : Chapter 02

  113. 00:20:55.375                             : Chapter 03

  114. 00:31:50.583                             : Chapter 04

  115. 00:39:19.541                             : Chapter 05

  116. 00:50:06.041                             : Chapter 06

  117. 01:00:50.333                             : Chapter 07

  118. 01:09:09.625                             : Chapter 08

  119. 01:18:36.416                             : Chapter 09

  120. 01:31:06.750                             : Chapter 10

  121. 01:39:14.000                             : Chapter 11

  122. 01:51:20.666                             : Chapter 12



文件下载


除非特别注明,本文『四大名捕[国粤语配音/中文字幕].The.Four.2012.1080p.BluRay.x265.10bit.DTS.2Audio 7.96GB』来源于互联网机器人自动抓取,非本站原创。 浮游电影网不对本文拥有版权,如有侵犯,请联系邮箱:fuyouu#yandex.com[#换成@]投诉。我们会在15个工作日内删除。 但烦请转载时请标明出处:“本文转载于『浮游电影网』,原文地址:https://www.fuyouu.com/14804.html

评论吧骚年!

发表你的见解   

昵称*

E-mail*(建议输入,以便收到博主回复的提示邮件)

验证码*

您可以使用eMule或eMule Mod(Windows)、aMule(Win、Linux、Mac)等软件下载eD2k链接。。
eMule收藏集(.emulecollection)文件是您选中的所有链接的列表文件。eMule可以直接下载它们。
按住SHIFT键选择可以选中多个选择框。
可用文件名和大小选择器来选择文件。
文件名选择器帮您根据文件名称或后缀来选择文件。不分大小写。
符号使用:
和:空格( )、+
不包含:-
或:|
转义:一对英文引号("");
匹配开头:^
匹配结尾:$
例如:
选中所有名称中包含有“eMule”或“0.49c”字眼,但不包含有“exe”字眼的:emule|0.49c -exe
选中所有名称的开头是“eMule”,结尾是“0.49c”的:^emule 0.49c$
选中所有名称中带有“eMule 0.49c”的(必须是“eMule 0.49c”,中间没有别的字符,不能是“eMule fake 0.49c”),需要转义:"emule 0.49c"
大小选择器帮您根据文件大小选择文件。