当前位置: 首页 >> 海外电影 >> 深入敌后搞搞震3[中文字幕].La.7.Eme.Compagnie.Au.Clair.De.Lune.1977.1080p.BluRay.x265.10bit.FLAC.MNHD 6.95GB >> 正文

深入敌后搞搞震3[中文字幕].La.7.Eme.Compagnie.Au.Clair.De.Lune.1977.1080p.BluRay.x265.10bit.FLAC.MNHD 6.95GB

2021年10月07日 11:27:04     电影发布:来源于网络     电影分类:海外电影     评论(0)    

深入敌后搞搞震3[中文字幕].La.7.Eme.Compagnie.Au.Clair.De.Lune.1977.1080p.BluRay.x265.10bit.FLAC.MNHD 6.95GB 喜剧片 海外电影  第1张

◎译 名 深入敌后搞搞震3

◎片 名 La 7ème compagnie au clair de lune

◎年 代 1977

◎产 地 法国

◎类 别 喜剧

◎语 言 法语

◎上映日期 1977-12-07

◎IMDb链接 https://www.imdb.com/title/tt0076684/

◎豆瓣评分 7.2/10 (155人评价)

◎豆瓣链接 https://movie.douban.com/subject/3027164/

◎片 长 75分钟

◎导 演 罗伯特·拉莫洛克斯 Robert Lamoureux (id:1017845)

◎编 剧 罗伯特·拉莫洛克斯 Robert Lamoureux (id:1017845)

让-马里·普瓦雷 Jean-Marie Poiré (id:1012654)

◎演 员 让·勒费弗尔 Jean Lefebvre (id:1103709)

昂利·吉贝 Henri Guybet (id:1093707)

皮埃尔·蒙迪 Pierre Mondy (id:1008074)

Patricia Karim Patricia Karim (id:1109887)

弗朗西斯·勒迈尔 Francis Lemaire (id:1111945)

安德烈·普斯 André Pousse (id:1132176)

Jean-Jacques Steen Jean-Jacques Steen (id:1157765)

Gérard Hérold Gérard Hérold (id:1106023)

让-弗朗索瓦·德雷克 Jean-Fran?ois Dérec (id:1085997)

Michel Berto Michel Berto (id:1062343)

让·卡尔梅 Jean Carmet (id:1048411)

热拉尔·朱尼奥 Gérard Jugnot (id:1048281)

马塞尔·格利农 Marcel Grignon (id:1043534)

阿尔贝·于尔根松 Albert Jurgenson (id:1287971)

◎标 签 喜剧 / 法国电影 / 法国 / 二战 / 搞笑 / 战争 / 法式幽默 / 深入敌后搞搞震

◎简 介

在敌后区,德国仍在控制小城。而一个对于德军相当于“眼中钉”的一个组织在秘密行动。三位士兵聚在一

起,庆祝退伍。然而当他们晚上在郊外捕兔子时,无意中打出了使组织的秘密人物飞机降落的暗号。早已得知情报并埋

伏在那的德军实施抓捕行动,但他们还是侥幸逃脱……他们也稀里糊涂地成为了德军全力抓捕的“犹太共济会组织三个

核心人物”……经典喜剧------正太猫

  1. ##### MediaInfo ######

  2. General

  3. Unique ID : 221161672459118005307283692192716782526 (0xA66230522E414D567E56DA99187B7BBE)

  4. Complete name : La.7.Eme.Compagni[email protected]BBQDDQ.COM.mkv

  5. Format : Matroska

  6. Format version : Version 4

  7. File size : 6.95 GiB

  8. Duration : 1 h 22 min

  9. Overall bit rate mode : Variable

  10. Overall bit rate : 12.1 Mb/s

  11. Movie name : La.7.Eme.Compagni[email protected]BBQDDQ.COM

  12. Encoded date : UTC 2021-10-06 08:10:24

  13. Writing application : mkvmerge v61.0.0 ('So') 64-bit

  14. Writing library : libebml v1.4.2 + libmatroska v1.6.4

  15. Cover : Yes

  16. Attachments : cover.jpg


  17. Video

  18. ID : 1

  19. Format : HEVC

  20. Format/Info : High Efficiency Video Coding

  21. Format profile : Main [email protected]@High

  22. Codec ID : V_MPEGH/ISO/HEVC

  23. Duration : 1 h 22 min

  24. Bit rate : 11.8 Mb/s

  25. Width : 1 792 pixels

  26. Height : 1 080 pixels

  27. Display aspect ratio : 5:3

  28. Frame rate mode : Constant

  29. Frame rate : 24.000 FPS

  30. Color space : YUV

  31. Chroma subsampling : 4:2:0

  32. Bit depth : 10 bits

  33. Bits/(Pixel*Frame) : 0.254

  34. Stream size : 6.77 GiB (97%)

  35. Writing library : x265 3.5+2-g2b25c9ba0+45:[Windows][GCC 10.2.0][64 bit] Yuuki 10bit

  36. Encoding settings : rc=crf / crf=21.0000 / qcomp=0.65 / qpstep=4 / stats-write=0 / stats-read=0 / vbv-maxrate=160000 / vbv-bufsize=160000 / vbv-init=0.9 / min-vbv-fullness=50.0 / max-vbv-fullness=80.0 / crf-max=0.0 / crf-min=0.0 / no-lossless / no-cu-lossless / aq-mode=1 / aq-strength=1.00 / cbqpoffs=-2 / crqpoffs=-2 / ipratio=1.30 / pbratio=1.20 / psy-rd=1.50 / psy-rdoq=1.00 / deblock=-3:-3 / ref=6 / limit-refs=0 / no-limit-modes / bframes=8 / b-adapt=2 / bframe-bias=0 / b-pyramid / b-intra / weightp / weightb / min-keyint=1 / max-keyint=250 / rc-lookahead=100 / gop-lookahead=0 / NTMzNTQ=uuDQuD2mJt9fsCf / scenecut=40 / hist-scenecut=0 / radl=0 / max-cu-size=32 / min-cu-size=8 / me=3 / subme=7 / merange=57 / rdoq-level=2 / rd=4 / rdpenalty=0 / dynamic-rd=0.00 / no-rd-refine / ----- / no-cutree / no-sao / no-rect / no-amp / no-open-gop / wpp / pmode / no-pme / no-psnr / no-ssim / nr-intra=0 / nr-inter=0 / no-constrained-intra / strong-intra-smoothing / max-tu-size=32 / tu-inter-depth=4 / tu-intra-depth=4 / limit-tu=0 / qg-size=8 / qpmax=69 / qpmin=0 / ----- / cpuid=533541111039 / frame-threads=3 / numa-pools=12 / log-level=2 / input-csp=1 / input-res=1792x1080 / interlace=0 / level-idc=0 / high-tier=1 / uhd-bd=0 / no-allow-non-conformance / no-repeat-headers / no-aud / no-hrd / info / hash=0 / no-temporal-layers / lookahead-slices=0 / no-splice / no-intra-refresh / no-ssim-rd / signhide / tskip / max-merge=5 / temporal-mvp / no-frame-dup / no-hme / no-analyze-src-pics / no-sao-non-deblock / selective-sao=0 / no-early-skip / no-rskip / no-fast-intra / no-tskip-fast / no-splitrd-skip / zone-count=0 / no-strict-cbr / no-rc-grain / no-const-vbv / sar=0 / overscan=0 / videoformat=5 / range=0 / colorprim=1 / transfer=1 / colormatrix=1 / chromaloc=0 / display-window=0 / cll=0,0 / min-luma=0 / max-luma=1023 / log2-max-poc-lsb=8 / vui-timing-info / vui-hrd-info / slices=1 / no-opt-qp-pps / no-opt-ref-list-length-pps / no-multi-pass-opt-rps / scenecut-bias=0.05 / hist-threshold=0.03 / no-opt-cu-delta-qp / no-aq-motion / no-hdr10 / no-hdr10-opt / no-dhdr10-opt / no-idr-recovery-sei / analysis-reuse-level=0 / analysis-save-reuse-level=0 / analysis-load-reuse-level=0 / scale-factor=0 / refine-intra=0 / refine-inter=0 / refine-mv=1 / refine-ctu-distortion=0 / no-limit-sao / ctu-info=0 / no-lowpass-dct / refine-analysis-type=0 / copy-pic=1 / max-ausize-factor=1.0 / no-dynamic-refine / no-single-sei / no-hevc-aq / no-svt / no-field / qp-adaptation-range=1.00 / scenecut-aware-qp=0conformance-window-offsets / right=0 / bottom=0 / NTMzNTQ= / decoder-max-rate=0 / no-vbv-live-multi-pass

  37. Default : Yes

  38. Forced : No

  39. Color range : Limited

  40. Color primaries : BT.709

  41. Transfer characteristics : BT.709

  42. Matrix coefficients : BT.709


  43. Audio

  44. ID : 2

  45. Format : FLAC

  46. Format/Info : Free Lossless Audio Codec

  47. Codec ID : A_FLAC

  48. Duration : 1 h 22 min

  49. Bit rate mode : Variable

  50. Bit rate : 272 kb/s

  51. Channel(s) : 2 channels

  52. Channel layout : L R

  53. Sampling rate : 48.0 kHz

  54. Frame rate : 11.719 FPS (4096 SPF)

  55. Bit depth : 16 bits

  56. Compression mode : Lossless

  57. Stream size : 159 MiB (2%)

  58. Writing library : libFLAC 1.2.1 (UTC 2007-09-17)

  59. Language : French

  60. Default : Yes

  61. Forced : No


  62. Text #1

  63. ID : 3

  64. ID in the original source medium : 4608 (0x1200)

  65. Format : PGS

  66. Muxing mode : zlib

  67. Codec ID : S_HDMV/PGS

  68. Codec ID/Info : Picture based subtitle format used on BDs/HD-DVDs

  69. Duration : 1 h 21 min

  70. Bit rate : 24.5 kb/s

  71. Count of elements : 2058

  72. Stream size : 14.4 MiB (0%)

  73. Language : French

  74. Default : Yes

  75. Forced : No

  76. Original source medium : Blu-ray


  77. Text #2

  78. ID : 4

  79. ID in the original source medium : 4609 (0x1201)

  80. Format : PGS

  81. Muxing mode : zlib

  82. Codec ID : S_HDMV/PGS

  83. Codec ID/Info : Picture based subtitle format used on BDs/HD-DVDs

  84. Duration : 1 h 20 min

  85. Bit rate : 20.6 kb/s

  86. Count of elements : 1824

  87. Stream size : 11.8 MiB (0%)

  88. Title : CHS

  89. Language : Chinese

  90. Default : Yes

  91. Forced : No

  92. Original source medium : Blu-ray


  93. Text #3

  94. ID : 5

  95. ID in the original source medium : 4610 (0x1202)

  96. Format : PGS

  97. Muxing mode : zlib

  98. Codec ID : S_HDMV/PGS

  99. Codec ID/Info : Picture based subtitle format used on BDs/HD-DVDs

  100. Duration : 1 h 20 min

  101. Bit rate : 21.4 kb/s

  102. Count of elements : 1824

  103. Stream size : 12.3 MiB (0%)

  104. Title : CHT

  105. Language : Chinese

  106. Default : Yes

  107. Forced : No

  108. Original source medium : Blu-ray


  109. Menu

  110. 00:00:00.000 : Chapter 01

  111. 00:06:00.666 : Chapter 02

  112. 00:12:27.458 : Chapter 03

  113. 00:19:33.041 : Chapter 04

  114. 00:26:12.208 : Chapter 05

  115. 00:33:15.833 : Chapter 06

  116. 00:41:00.041 : Chapter 07

  117. 00:47:31.500 : Chapter 08

  118. 00:55:04.000 : Chapter 09

  119. 01:00:32.833 : Chapter 10

  120. 01:05:18.375 : Chapter 11

  121. 01:12:16.458 : Chapter 12



文件下载


除非特别注明,本文『深入敌后搞搞震3[中文字幕].La.7.Eme.Compagnie.Au.Clair.De.Lune.1977.1080p.BluRay.x265.10bit.FLAC.MNHD 6.95GB』来源于互联网机器人自动抓取,非本站原创。 浮游电影网不对本文拥有版权,如有侵犯,请联系邮箱:fuyouu#yandex.com[#换成@]投诉。我们会在15个工作日内删除。 但烦请转载时请标明出处:“本文转载于『浮游电影网』,原文地址:https://www.fuyouu.com/14795.html

评论吧骚年!

发表你的见解   

昵称*

E-mail*(建议输入,以便收到博主回复的提示邮件)

验证码*

您可以使用eMule或eMule Mod(Windows)、aMule(Win、Linux、Mac)等软件下载eD2k链接。。
eMule收藏集(.emulecollection)文件是您选中的所有链接的列表文件。eMule可以直接下载它们。
按住SHIFT键选择可以选中多个选择框。
可用文件名和大小选择器来选择文件。
文件名选择器帮您根据文件名称或后缀来选择文件。不分大小写。
符号使用:
和:空格( )、+
不包含:-
或:|
转义:一对英文引号("");
匹配开头:^
匹配结尾:$
例如:
选中所有名称中包含有“eMule”或“0.49c”字眼,但不包含有“exe”字眼的:emule|0.49c -exe
选中所有名称的开头是“eMule”,结尾是“0.49c”的:^emule 0.49c$
选中所有名称中带有“eMule 0.49c”的(必须是“eMule 0.49c”,中间没有别的字符,不能是“eMule fake 0.49c”),需要转义:"emule 0.49c"
大小选择器帮您根据文件大小选择文件。