当前位置: 首页 >> 海外电影 >> 安娜[中文字幕].Anna.2019.1080p.NF.WEB-DL.x264.AAC 1.67GB >> 正文

安娜[中文字幕].Anna.2019.1080p.NF.WEB-DL.x264.AAC 1.67GB

2021年10月07日 11:19:41     电影发布:来源于网络     电影分类:海外电影     评论(0)    

安娜[中文字幕].Anna.2019.1080p.NF.WEB DL.x264.AAC 1.67GB 惊悚片 动作片 海外电影  第1张

◎译 名 安娜 / ANИA

◎片 名 Anna

◎年 代 2019

◎产 地 法国 / 美国 / 加拿大 / 俄罗斯

◎类 别 动作 / 惊悚

◎语 言 英语 / 俄语 / 法语

◎上映日期 2019-06-21(美国) / 2019-07-10(法国)

◎IMDb链接 https://www.imdb.com/title/tt7456310/

◎豆瓣评分 7.8/10 (159919人评价)

◎豆瓣链接 https://movie.douban.com/subject/27166976/

◎片 长 119分钟

◎导 演 吕克·贝松 Luc Besson (id:1031876)

◎编 剧 吕克·贝松 Luc Besson (id:1031876)

◎演 员 萨莎·露丝 Sasha Luss (id:1382297)

海伦·米伦 Helen Mirren (id:1054390)

卢克·伊万斯 Luke Evans (id:1276136)

基里安·墨菲 Cillian Murphy (id:1047992)

莱拉·阿波瓦 Lera Abova (id:1418363)

亚历山大·佩特罗夫 Alexander Petrov (id:1370381)

尼基塔·帕夫连科 Nikita Pavlenko (id:1422954)

安娜·克里帕 Anna Krippa (id:1422955)

阿列克谢·马斯洛杜多夫 Aleksey Maslodudov (id:1422956)

艾力克·高敦 Eric Godon (id:1009215)

伊凡·弗拉内克 Ivan Franek (id:1387919)

让·巴蒂斯特·普奇 Jean-Baptiste Puech (id:1422953)

阿德里安·坎恩 Adrian Can (id:1378475)

艾莉森·惠勒 Alison Wheeler (id:1422957)

安德鲁·霍华德 Andrew Howard (id:1286986)

詹·奥利弗·施罗德 Jan Oliver Schroeder (id:1339838)

谢尔盖巴切乌尔斯基 Sergey Bachurskiy (id:1361491)

耶斯·利奥丹 Jess Liaudin (id:1323451)

詹姆斯·乔因特 James Joint (id:1257486)

雷吉尔·库迪乌 Réginal Kudiwu (id:1412921)

扎克·安德里亚纳索洛 Zac Andrianasolo (id:1381552)

保利妮·霍劳 Pauline Hoarau (id:1384004)

尼可洛·森尼 Niccolò Senni (id:1051336)

伊戈尔·萨沃金 Igor Savochkin (id:1361497)

特拉维斯·克舍琴 Travis Kerschen (id:1042811)

埃文特·斯特朗 Avant Strangel (id:1393293)

克里斯多夫·泰克 Christophe Tek (id:1339842)

鲁伯特·韦恩-詹姆斯 Rupert Wynne-James (id:1406479)

大卫·科伯恩 David Coburn (id:1068041)

詹苏·托松 cansu tosun (id:1423076)

索菲亚·邓恩-沃克 Sophia Dunn-Walker (id:1432688)

艾瑞克·塞拉 Eric Serra (id:1050343)

蒂埃里·阿博加斯特 Thierry Arbogast (id:1276547)

◎标 签 特工 / 动作 / 吕克·贝松 / 法国 / 悬疑 / 2019 / 电影 / 惊悚

◎简 介

故事聚焦神秘女杀手安娜的成长及执行各种暗杀任务的经历,在美丽的外表下,安娜拥有聪明绝顶的头脑和强大的战斗技巧,是世界上最恐怖的刺客之一,她游走于黑白两道,只要被锁定的目标,从不失手。

◎获奖情况 (共1项)

第6届豆瓣电影年度榜单 (2019)

最受关注的非院线电影(提名)

  1. ##### MediaInfo ######

  2. General

  3. Unique ID : 276337461148256639877176930212307028560 (0xCFE4A8BBF75B69E9E7A71088B98C4A50)

  4. Complete name : [email protected]

  5. Format : Matroska

  6. Format version : Version 4

  7. File size : 1.66 GiB

  8. Duration : 1 h 58 min

  9. Overall bit rate mode : Variable

  10. Overall bit rate : 2 002 kb/s

  11. Encoded date : UTC 2021-10-06 13:48:46

  12. Writing application : mkvmerge v61.0.0 ('So') 64-bit

  13. Writing library : libebml v1.4.2 + libmatroska v1.6.4


  14. Video

  15. ID : 1

  16. Format : AVC

  17. Format/Info : Advanced Video Codec

  18. Format profile : [email protected]

  19. Format settings : CABAC / 4 Ref Frames

  20. Format settings, CABAC : Yes

  21. Format settings, Reference frames : 4 frames

  22. Codec ID : V_MPEG4/ISO/AVC

  23. Duration : 1 h 58 min

  24. Bit rate mode : Variable

  25. Bit rate : 1 872 kb/s

  26. Maximum bit rate : 20.0 Mb/s

  27. Width : 1 920 pixels

  28. Height : 1 080 pixels

  29. Display aspect ratio : 16:9

  30. Frame rate mode : Constant

  31. Frame rate : 23.976 (24000/1001/53354) FPS

  32. Color space : YUV

  33. Chroma subsampling : 4:2:0

  34. Bit depth : 8 bits

  35. Scan type : Progressive

  36. Bits/(Pixel*Frame) : 0.038

  37. Stream size : 1.56 GiB (94%)

  38. Writing library : x264 core 148 r2722 1b0121b

  39. Encoding settings : cabac=1 / ref=4 / deblock=1:0:0 / analyse=0x3:0x111 / me=umh / subme=10 / psy=1 / psy_rd=1.00:0.00 / mixed_ref=1 / me_range=120 / chroma_me=1 / trellis=2 / 8x8dct=1 / cqm=0 / deadzone=21,11 / fast_pskip=1 / chroma_qp_offset=-2 / threads=8 / lookahead_threads=2 / sliced_threads=0 / nr=0 / decimate=1 / interlaced=0 / NTMzNTQ= / bluray_compat=0 / stitchable=1 / constrained_intra=0 / bframes=16 / b_pyramid=2 / b_adapt=2 / b_bias=0 / direct=3 / weightb=1 / open_gop=0 / weightp=2 / keyint=240 / keyint_min=121 / scenecut=0 / intra_refresh=0 / rc_lookahead=240 / rc=crf / mbtree=1 / crf=20.0 / qcomp=0.50 / qpmin=6 / qpmax=51 / qpstep=4 / vbv_maxrate=20000 / vbv_bufsize=25000 / crf_max=0.0 / nal_hrd=vbr / filler=0 / NTMzNTQ=LmsMAP37EqsCpk / ip_ratio=1.40 / aq=1:0.80

  40. Default : Yes

  41. Forced : No


  42. Audio

  43. ID : 2

  44. Format : AAC LC SBR

  45. Format/Info : Advanced Audio Codec Low Complexity with Spectral Band Replication

  46. Commercial name : HE-AAC

  47. Format settings : Explicit

  48. Codec ID : A_AAC-2

  49. Duration : 1 h 58 min

  50. Bit rate : 128 kb/s

  51. Channel(s) : 2 channels

  52. Channel layout : L R

  53. Sampling rate : 48.0 kHz

  54. Frame rate : 23.438 FPS (2048 SPF)

  55. Compression mode : Lossy

  56. Stream size : 109 MiB (6%)

  57. Language : English

  58. Default : Yes

  59. Forced : No


  60. Text #1

  61. ID : 3

  62. Format : UTF-8

  63. Codec ID : S_TEXT/UTF8

  64. Codec ID/Info : UTF-8 Plain Text

  65. Duration : 1 h 57 min

  66. Bit rate : 42 b/s

  67. Count of elements : 1496

  68. Stream size : 36.9 KiB (0%)

  69. Title : 简体中文

  70. Language : Chinese

  71. Default : Yes

  72. Forced : No


  73. Text #2

  74. ID : 4

  75. Format : UTF-8

  76. Codec ID : S_TEXT/UTF8

  77. Codec ID/Info : UTF-8 Plain Text

  78. Duration : 1 h 57 min

  79. Bit rate : 42 b/s

  80. Count of elements : 1496

  81. Stream size : 36.9 KiB (0%)

  82. Title : 繁体中文

  83. Language : Chinese

  84. Default : Yes

  85. Forced : No




复制代码



文件下载


除非特别注明,本文『安娜[中文字幕].Anna.2019.1080p.NF.WEB-DL.x264.AAC 1.67GB』来源于互联网机器人自动抓取,非本站原创。 浮游电影网不对本文拥有版权,如有侵犯,请联系邮箱:fuyouu#yandex.com[#换成@]投诉。我们会在15个工作日内删除。 但烦请转载时请标明出处:“本文转载于『浮游电影网』,原文地址:https://www.fuyouu.com/14788.html

评论吧骚年!

发表你的见解   

昵称*

E-mail*(建议输入,以便收到博主回复的提示邮件)

验证码*

您可以使用eMule或eMule Mod(Windows)、aMule(Win、Linux、Mac)等软件下载eD2k链接。。
eMule收藏集(.emulecollection)文件是您选中的所有链接的列表文件。eMule可以直接下载它们。
按住SHIFT键选择可以选中多个选择框。
可用文件名和大小选择器来选择文件。
文件名选择器帮您根据文件名称或后缀来选择文件。不分大小写。
符号使用:
和:空格( )、+
不包含:-
或:|
转义:一对英文引号("");
匹配开头:^
匹配结尾:$
例如:
选中所有名称中包含有“eMule”或“0.49c”字眼,但不包含有“exe”字眼的:emule|0.49c -exe
选中所有名称的开头是“eMule”,结尾是“0.49c”的:^emule 0.49c$
选中所有名称中带有“eMule 0.49c”的(必须是“eMule 0.49c”,中间没有别的字符,不能是“eMule fake 0.49c”),需要转义:"emule 0.49c"
大小选择器帮您根据文件大小选择文件。