当前位置: 首页 >> 国产电影 >> 牧野诡事之观山太保[国语配音/中文字幕].The.Legend.Of.Muye.Tomb.Seeking.Master.2021.4K.WEB-DL.H265.DDP2.0 2.12GB >> 正文

牧野诡事之观山太保[国语配音/中文字幕].The.Legend.Of.Muye.Tomb.Seeking.Master.2021.4K.WEB-DL.H265.DDP2.0 2.12GB

2021年10月07日 11:15:51     电影发布:来源于网络     电影分类:国产电影     评论(0)    

牧野诡事之观山太保[国语配音/中文字幕].The.Legend.Of.Muye.Tomb.Seeking.Master.2021.4K.WEB DL.H265.DDP2.0 2.12GB 奇幻片 冒险片 国产电影  第1张

◎译 名 牧野诡事之观山太保

◎年 代 2021

◎产 地 中国大陆

◎类 别 奇幻 / 冒险

◎语 言 汉语普通话

◎上映日期 2021-10-06(中国大陆网络)

◎IMDb链接 https://www.imdb.com/title//

◎豆瓣链接 https://movie.douban.com/subject/35134557/

◎片 长 76分钟

◎导 演 刘轩狄 Xuandi Liu (id:1400999)

张珂文 Kewen Zhang (id:1462146)

◎编 剧 天下霸唱 Muye Zhang (id:1340983)

◎演 员 此沙 J_Black (id:1428375)

叶熙祺 Xiqi Ye (id:1317861)

林枫烨 Fengye Lin (id:1400559)

付赫安琪 Anqi Fu-He (id:1357158)

肖飞 Fei Xiao (id:1349513)

张珂文 Kewen Zhang (id:1462146)

刘轩狄 Xuandi Liu (id:1400999)

◎标 签 鬼吹灯 / 牧野诡事 / 2020 / 内地 / 中国大陆 / 此沙 / 奇幻 / 叶熙祺

◎简 介

本片讲述了民国年间,观山一族传人封四九的探险故事。故事由为祸一方的郑大帅而起,贪财的他入墓地而死,却引出了一个充满诡计与江湖恩怨的阴谋。观山太保传人封四九为了筹措军饷,应郑大帅嫡子郑东西请求,出山取回郑大帅遗体。

郑东西为求稳妥,又命其妹郑小兰找到了与封四九祖上观山太保有仇的,发丘中郎一族后代陈青山一同参与,制衡封四九。

一行人开始冒险,谁知进入还未进入墓地,却几番陷入凶险,突破了关门村,草人阵,找到了墓地后,却引发了如潮水般的斗虫来袭。历经艰险下墓后,家奴大烂财突然发难。经年忍辱负重的他只觉现在时机已到。却不成想惊动了阴阳母子棺中的巨大斗虫。开始屠杀众人。封四九的同伴为掩护众人陆续牺牲,最终,陈青山与封四九冰释前嫌。陈青山牺牲自己,保全众人。

而封四九最终将墓底宝物用做军饷捐赠。

  1. ##### MediaInfo ######

  2. General

  3. Unique ID : 246214922911040281279306684757237313609 (0xB93B44EF76E2C9AABB3E9B6B78C43049)

  4. Complete name : 牧野诡事之观山太保.The.Lege[email protected]BBQDDQ.COM.mkv

  5. Format : Matroska

  6. Format version : Version 4

  7. File size : 2.12 GiB

  8. Duration : 1 h 13 min

  9. Overall bit rate : 4 122 kb/s

  10. Encoded date : UTC 2021-10-06 10:59:04

  11. Writing application : mkvmerge v61.0.0 ('So') 64-bit

  12. Writing library : libebml v1.4.2 + libmatroska v1.6.4


  13. Video

  14. ID : 1

  15. Format : HEVC

  16. Format/Info : High Efficiency Video Coding

  17. Format profile : [email protected]@Main

  18. Codec ID : V_MPEGH/ISO/HEVC

  19. Duration : 1 h 13 min

  20. Bit rate : 4 025 kb/s

  21. Width : 3 840 pixels

  22. Height : 1 640 pixels

  23. Display aspect ratio : 2.35:1

  24. Frame rate mode : Constant

  25. Frame rate : 24.000 FPS

  26. Color space : YUV

  27. Chroma subsampling : 4:2:0

  28. Bit depth : 8 bits

  29. Bits/(Pixel*Frame) : 0.027

  30. Stream size : 2.07 GiB (98%)

  31. Default : Yes

  32. Forced : No


  33. Audio

  34. ID : 2

  35. Format : E-AC-3

  36. Format/Info : Enhanced AC-3

  37. Commercial name : Dolby Digital Plus

  38. Codec ID : A_EAC3

  39. Duration : 1 h 13 min

  40. Bit rate mode : Constant

  41. Bit rate : 96.0 kb/s

  42. Channel(s) : 2 channels

  43. Channel layout : L R

  44. Sampling rate : 48.0 kHz

  45. Frame rate : 31.250 FPS (1536 SPF)

  46. Compression mode : Lossy

  47. Stream size : 50.6 MiB (2%)

  48. Service kind : Complete Main

  49. Default : Yes

  50. Forced : No




复制代码



文件下载


除非特别注明,本文『牧野诡事之观山太保[国语配音/中文字幕].The.Legend.Of.Muye.Tomb.Seeking.Master.2021.4K.WEB-DL.H265.DDP2.0 2.12GB』来源于互联网机器人自动抓取,非本站原创。 浮游电影网不对本文拥有版权,如有侵犯,请联系邮箱:fuyouu#yandex.com[#换成@]投诉。我们会在15个工作日内删除。 但烦请转载时请标明出处:“本文转载于『浮游电影网』,原文地址:https://www.fuyouu.com/14785.html

评论吧骚年!

发表你的见解   

昵称*

E-mail*(建议输入,以便收到博主回复的提示邮件)

验证码*

您可以使用eMule或eMule Mod(Windows)、aMule(Win、Linux、Mac)等软件下载eD2k链接。。
eMule收藏集(.emulecollection)文件是您选中的所有链接的列表文件。eMule可以直接下载它们。
按住SHIFT键选择可以选中多个选择框。
可用文件名和大小选择器来选择文件。
文件名选择器帮您根据文件名称或后缀来选择文件。不分大小写。
符号使用:
和:空格( )、+
不包含:-
或:|
转义:一对英文引号("");
匹配开头:^
匹配结尾:$
例如:
选中所有名称中包含有“eMule”或“0.49c”字眼,但不包含有“exe”字眼的:emule|0.49c -exe
选中所有名称的开头是“eMule”,结尾是“0.49c”的:^emule 0.49c$
选中所有名称中带有“eMule 0.49c”的(必须是“eMule 0.49c”,中间没有别的字符,不能是“eMule fake 0.49c”),需要转义:"emule 0.49c"
大小选择器帮您根据文件大小选择文件。