当前位置: 首页 >> 海外电影 >> 回路人生[中文字幕].Cruel.&.Unusual.2014.1080p.FriDay.WEB-DL.H264.AAC 3.27GB >> 正文

回路人生[中文字幕].Cruel.&.Unusual.2014.1080p.FriDay.WEB-DL.H264.AAC 3.27GB

2021年10月06日 20:31:27     电影发布:来源于网络     电影分类:海外电影     评论(0)    

回路人生[中文字幕].Cruel.&.Unusual.2014.1080p.FriDay.WEB DL.H264.AAC 3.27GB 奇幻片 海外电影  第1张

◎译 名 回路人生 / 迴路人生(台)

◎片 名 Cruel & Unusual

◎年 代 2014

◎产 地 加拿大

◎类 别 奇幻

◎语 言 英语

◎上映日期 2014-06-14(上海国际电影节)

◎IMDb链接 https://www.imdb.com/title/tt2379080/

◎豆瓣评分 7.0/10 (1558人评价)

◎豆瓣链接 https://movie.douban.com/subject/20426918/

◎片 长 95分钟

◎导 演 梅林·德维塞维克 Merlin Dervisevic (id:1082968)

◎编 剧 梅林·德维塞维克 Merlin Dervisevic (id:1082968)

◎演 员 大卫·里士满-佩克 David Richmond-Peck (id:1341563)

伯纳黛特·萨克巴尔 Bernadette Saquibal (id:1341564)

米歇尔·哈里逊 Michelle Harrison (id:1000344)

凯尔·卡西 Kyle Cassie (id:1174425)

玛丽·布莱克 Mary Black (id:1330076)

迈克尔·艾克朗德 Michael Eklund (id:1319132)

理查德·哈蒙 Richard Harmon (id:1253549)

Mary Black Mary Black (id:1067059)

◎标 签 悬疑 / 加拿大 / 奇幻 / 2014 / 人性 / 剧情 / 科幻 / 惊悚

◎简 介

陷入轮回地狱中的男人,不得不一遍遍面对自己亲手杀死妻子的事实,如何才能跳出这个噩梦般的循环?加拿大新锐导演梅林·德维塞维克四年磨一剑,推出的此部剧情长片处女作乍一看充满了各种即视感,跳跃循环不断改变过去的桥段媲美《蝴蝶效应》、《恐怖游轮》等经典作品,然而精心打磨的剧本使得影片层次异常丰富,在复杂的结构之外更有政治隐喻和宗教意味。影片在金马奇幻影展上展映时大获好评,如同西西弗斯一般在轮回中得到救赎的故事,让观众走出影院仍玩味不已。

  1. ##### MediaInfo ######

  2. General

  3. Unique ID : 236834202612844334078229727960907036792 (0xB22C9BB75E107197EEEBB076620EB878)

  4. Complete name : Cruel & [email protected]

  5. Format : Matroska

  6. Format version : Version 4

  7. File size : 3.27 GiB

  8. Duration : 1 h 31 min

  9. Overall bit rate : 5 109 kb/s

  10. Encoded date : UTC 2021-10-05 12:16:43

  11. Writing application : mkvmerge v56.1.0 ('My Friend') 64-bit

  12. Writing library : libebml v1.4.2 + libmatroska v1.6.4


  13. Video

  14. ID : 1

  15. Format : AVC

  16. Format/Info : Advanced Video Codec

  17. Format profile : [email protected]

  18. Format settings : CABAC / 3 Ref Frames

  19. Format settings, CABAC : Yes

  20. Format settings, Reference frames : 3 frames

  21. Format settings, GOP : M=1, N=60

  22. Codec ID : V_MPEG4/ISO/AVC

  23. Duration : 1 h 31 min

  24. Bit rate : 4 978 kb/s

  25. Width : 1 920 pixels

  26. Height : 1 080 pixels

  27. Display aspect ratio : 16:9

  28. Frame rate mode : Constant

  29. Frame rate : 30.000 FPS

  30. Color space : YUV

  31. Chroma subsampling : 4:2:0

  32. Bit depth : 8 bits

  33. Scan type : Progressive

  34. Bits/(Pixel*Frame) : 0.080

  35. Stream size : 3.19 GiB (97%)

  36. Language : English

  37. Default : Yes

  38. Forced : No


  39. Audio

  40. ID : 2

  41. Format : AAC LC

  42. Format/Info : Advanced Audio Codec Low Complexity

  43. Codec ID : A_AAC-2

  44. Duration : 1 h 31 min

  45. Bit rate : 128 kb/s

  46. Channel(s) : 2 channels

  47. Channel layout : L R

  48. Sampling rate : 44.1 kHz

  49. Frame rate : 43.066 FPS (1024 SPF)

  50. Compression mode : Lossy

  51. Stream size : 83.9 MiB (3%)

  52. Title : English

  53. Language : English

  54. Default : Yes

  55. Forced : No


  56. Text #1

  57. ID : 3

  58. Format : UTF-8

  59. Codec ID : S_TEXT/UTF8

  60. Codec ID/Info : UTF-8 Plain Text

  61. Duration : 1 h 31 min

  62. Bit rate : 38 b/s

  63. Count of elements : 1182

  64. Stream size : 25.8 KiB (0%)

  65. Title : Chinese Simplified

  66. Language : Chinese

  67. Default : Yes

  68. Forced : No


  69. Text #2

  70. ID : 4

  71. Format : UTF-8

  72. Codec ID : S_TEXT/UTF8

  73. Codec ID/Info : UTF-8 Plain Text

  74. Duration : 1 h 31 min

  75. Bit rate : 38 b/s

  76. Count of elements : 1182

  77. Stream size : 25.8 KiB (0%)

  78. Title : Chinese Traditional

  79. Language : Chinese

  80. Default : No

  81. Forced : No




复制代码



文件下载


除非特别注明,本文『回路人生[中文字幕].Cruel.&.Unusual.2014.1080p.FriDay.WEB-DL.H264.AAC 3.27GB』来源于互联网机器人自动抓取,非本站原创。 浮游电影网不对本文拥有版权,如有侵犯,请联系邮箱:fuyouu#yandex.com[#换成@]投诉。我们会在15个工作日内删除。 但烦请转载时请标明出处:“本文转载于『浮游电影网』,原文地址:https://www.fuyouu.com/14782.html

评论吧骚年!

发表你的见解   

昵称*

E-mail*(建议输入,以便收到博主回复的提示邮件)

验证码*

您可以使用eMule或eMule Mod(Windows)、aMule(Win、Linux、Mac)等软件下载eD2k链接。。
eMule收藏集(.emulecollection)文件是您选中的所有链接的列表文件。eMule可以直接下载它们。
按住SHIFT键选择可以选中多个选择框。
可用文件名和大小选择器来选择文件。
文件名选择器帮您根据文件名称或后缀来选择文件。不分大小写。
符号使用:
和:空格( )、+
不包含:-
或:|
转义:一对英文引号("");
匹配开头:^
匹配结尾:$
例如:
选中所有名称中包含有“eMule”或“0.49c”字眼,但不包含有“exe”字眼的:emule|0.49c -exe
选中所有名称的开头是“eMule”,结尾是“0.49c”的:^emule 0.49c$
选中所有名称中带有“eMule 0.49c”的(必须是“eMule 0.49c”,中间没有别的字符,不能是“eMule fake 0.49c”),需要转义:"emule 0.49c"
大小选择器帮您根据文件大小选择文件。