当前位置: 首页 >> 欧美电影 >> 搜索者[中文字幕].The.Searchers.1956.1080p.FriDay.WEB-DL.H264.AAC 3.32GB >> 正文

搜索者[中文字幕].The.Searchers.1956.1080p.FriDay.WEB-DL.H264.AAC 3.32GB

2021年10月06日 20:30:17     电影发布:来源于网络     电影分类:欧美电影     评论(0)    

搜索者[中文字幕].The.Searchers.1956.1080p.FriDay.WEB DL.H264.AAC 3.32GB 西部 冒险片 剧情片 欧美电影  第1张

◎译 名 搜索者 / 日落狂沙

◎片 名 The Searchers

◎年 代 1956

◎产 地 美国

◎类 别 剧情 / 西部 / 冒险

◎语 言 英语 / 纳瓦霍语 / 西班牙语

◎上映日期 1956-05-26(美国)

◎IMDb链接 https://www.imdb.com/title/tt0049730/

◎豆瓣评分 7.8/10 (7098人评价)

◎豆瓣链接 https://movie.douban.com/subject/1292668/

◎片 长 119 分钟

◎导 演 约翰·福特 John Ford (id:1007035)

◎编 剧 弗兰克·S·纽金特 Frank S. Nugent (id:1019470)

艾伦·勒梅 Alan Le May (id:1014872)

◎演 员 约翰·韦恩 John Wayne (id:1017917)

杰弗里·亨特 Jeffrey Hunter (id:1036562)

维拉·迈尔斯 Vera Miles (id:1049722)

沃德·邦德 Ward Bond (id:1002795)

娜塔莉·伍德 Natalie Wood (id:1009259)

约翰奎尔伦 John Qualen (id:1142854)

奥利芙·凯里 Olive Carey (id:1078486)

亨利·布兰登 Henry Brandon (id:1073719)

肯·柯蒂斯 Ken Curtis (id:1010650)

小哈里·凯瑞 Harry Carey Jr. (id:1048213)

安东尼奥·莫雷诺 Antonio Moreno (id:1129444)

汉克·沃登 Hank Worden (id:1166239)

比拉·阿丘利塔 Beulah Archuletta (id:1059822)

沃尔特·科伊 Walter Coy (id:1068396)

多萝西·乔丹 Dorothy Jordan (id:1110529)

皮帕·斯科特 Pippa Scott (id:1041304)

帕特里克·韦恩 Patrick Wayne (id:1165031)

拉娜·伍德 Lana Wood (id:1032002)

格特鲁德·阿斯特 Gertrude Astor (id:1054339)

丹尼·鲍沙其 Danny Borzage (id:1065867)

露丝·克利福德 Ruth Clifford (id:1074594)

卡门·丹东尼奥 Carmen D'Antonio (id:1078336)

纳乔·加林多 Nacho Galindo (id:1091133)

查克·海沃德 Chuck Hayward (id:1097758)

奥维·卢纳 Away Luna (id:1122878)

克利夫·莱昂斯 Cliff Lyons (id:1115019)

彼得·马马科斯 Peter Mamakos (id:1124807)

梅·马什 Mae Marsh (id:1041421)

弗兰克·麦克格拉斯 Frank McGrath (id:1115101)

杰克·彭尼克 Jack Pennick (id:1136672)

劳埃德·佩里曼 Lloyd Perryman (id:1131856)

查克·罗伯森 Chuck Roberson (id:1141110)

威廉·斯蒂尔 William Steele (id:1155196)

雷云酋长 Chief Thundercloud (id:1159584)

特里·威尔森 Terry Wilson (id:1167668)

普林斯 Prince (id:1433594)

马克思·斯坦纳 Max Steiner (id:1048318)

盖瑞·尼尔森 Gary Nelson (id:1293029)

◎标 签 美国 / 西部片 / 约翰·福特 / 西部 / 约翰·韦恩 / 1956 / 美国电影 / JohnFord

◎简 介

曾参加过美国内战的退伍老兵埃森·爱德华兹(约翰·韦恩 John Wayne 饰)战争结束后返回家乡德克萨斯州,来到哥哥的农场希望与亲人重聚团圆。埃森一直暗恋着自己的嫂子,只把这份感情放在心底。然而一场科曼奇族的突袭,让埃森的心愿彻底粉碎。在这次印地安人的袭击中,埃森的哥嫂双双被杀,侄女黛比(娜塔利·伍德 Natalie Wood 饰)被掠,生死未卜。

为了给自己心爱的嫂子复仇,也为了找到黛比的下落,埃森在哥哥养子马丁(杰弗里·亨特 Jeffrey Hunter 饰)的陪伴下,开始了艰难的搜寻岁月。埃森不惜耗时五年和花费千元赏金来寻找酋长斯卡的下落,然而埃森对印第安人彻骨的仇恨和几近疯狂的举动,让马丁开始怀疑叔叔搜索黛比的真正原因,马丁甚至担心,埃森会杀死已被印第安人同化的黛比。

  1. ##### MediaInfo ######

  2. General

  3. Unique ID : 33131715572715707651549892265620828742 (0x18ECEFB23623AA498EC798A06F3C7246)

  4. Complete name : [email protected].mkv

  5. Format : Matroska

  6. Format version : Version 4

  7. File size : 3.32 GiB

  8. Duration : 1 h 58 min

  9. Overall bit rate : 3 997 kb/s

  10. Encoded date : UTC 2021-10-06 01:03:46

  11. Writing application : mkvmerge v56.1.0 ('My Friend') 64-bit

  12. Writing library : libebml v1.4.2 + libmatroska v1.6.4


  13. Video

  14. ID : 1

  15. Format : AVC

  16. Format/Info : Advanced Video Codec

  17. Format profile : [email protected]

  18. Format settings : CABAC / 1 Ref Frames

  19. Format settings, CABAC : Yes

  20. Format settings, Reference frames : 1 frame

  21. Format settings, GOP : M=1, N=60

  22. Codec ID : V_MPEG4/ISO/AVC

  23. Duration : 1 h 58 min

  24. Bit rate mode : Constant

  25. Bit rate : 4 000 kb/s

  26. Width : 1 920 pixels

  27. Height : 1 080 pixels

  28. Display aspect ratio : 16:9

  29. Frame rate mode : Constant

  30. Frame rate : 29.970 (30000/1001/53354) FPS

  31. Color space : YUV

  32. Chroma subsampling : 4:2:0

  33. Bit depth : 8 bits

  34. Scan type : Progressive

  35. Bits/(Pixel*Frame) : 0.064

  36. Stream size : 3.21 GiB (97%)

  37. Language : English

  38. Default : Yes

  39. Forced : No


  40. Audio

  41. ID : 2

  42. Format : AAC LC

  43. Format/Info : Advanced Audio Codec Low Complexity

  44. Codec ID : A_AAC-2

  45. Duration : 1 h 58 min

  46. Bit rate : 125 kb/s

  47. Channel(s) : 2 channels

  48. Channel layout : L R

  49. Sampling rate : 48.0 kHz

  50. Frame rate : 46.875 FPS (1024 SPF)

  51. Compression mode : Lossy

  52. Stream size : 107 MiB (3%)

  53. Title : English

  54. Language : English

  55. Default : Yes

  56. Forced : No


  57. Text #1

  58. ID : 3

  59. Format : UTF-8

  60. Codec ID : S_TEXT/UTF8

  61. Codec ID/Info : UTF-8 Plain Text

  62. Duration : 1 h 58 min

  63. Bit rate : 41 b/s

  64. Count of elements : 1415

  65. Stream size : 36.0 KiB (0%)

  66. Title : Chinese Simplified

  67. Language : Chinese

  68. Default : Yes

  69. Forced : No


  70. Text #2

  71. ID : 4

  72. Format : UTF-8

  73. Codec ID : S_TEXT/UTF8

  74. Codec ID/Info : UTF-8 Plain Text

  75. Duration : 1 h 58 min

  76. Bit rate : 41 b/s

  77. Count of elements : 1415

  78. Stream size : 36.0 KiB (0%)

  79. Title : Chinese Traditional

  80. Language : Chinese

  81. Default : No

  82. Forced : No




复制代码



文件下载


除非特别注明,本文『搜索者[中文字幕].The.Searchers.1956.1080p.FriDay.WEB-DL.H264.AAC 3.32GB』来源于互联网机器人自动抓取,非本站原创。 浮游电影网不对本文拥有版权,如有侵犯,请联系邮箱:fuyouu#yandex.com[#换成@]投诉。我们会在15个工作日内删除。 但烦请转载时请标明出处:“本文转载于『浮游电影网』,原文地址:https://www.fuyouu.com/14781.html

评论吧骚年!

发表你的见解   

昵称*

E-mail*(建议输入,以便收到博主回复的提示邮件)

验证码*

您可以使用eMule或eMule Mod(Windows)、aMule(Win、Linux、Mac)等软件下载eD2k链接。。
eMule收藏集(.emulecollection)文件是您选中的所有链接的列表文件。eMule可以直接下载它们。
按住SHIFT键选择可以选中多个选择框。
可用文件名和大小选择器来选择文件。
文件名选择器帮您根据文件名称或后缀来选择文件。不分大小写。
符号使用:
和:空格( )、+
不包含:-
或:|
转义:一对英文引号("");
匹配开头:^
匹配结尾:$
例如:
选中所有名称中包含有“eMule”或“0.49c”字眼,但不包含有“exe”字眼的:emule|0.49c -exe
选中所有名称的开头是“eMule”,结尾是“0.49c”的:^emule 0.49c$
选中所有名称中带有“eMule 0.49c”的(必须是“eMule 0.49c”,中间没有别的字符,不能是“eMule fake 0.49c”),需要转义:"emule 0.49c"
大小选择器帮您根据文件大小选择文件。