当前位置: 首页 >> 欧美电影 >> 野狼[中文字幕].Hombre.1967.1080p.FriDay.WEB-DL.H264.AAC 2.96GB >> 正文

野狼[中文字幕].Hombre.1967.1080p.FriDay.WEB-DL.H264.AAC 2.96GB

2021年10月06日 20:28:55     电影发布:来源于网络     电影分类:欧美电影     评论(0)    

野狼[中文字幕].Hombre.1967.1080p.FriDay.WEB DL.H264.AAC 2.96GB 西部 动作片 剧情片 欧美电影  第1张

◎译 名 野狼

◎片 名 Hombre

◎年 代 1967

◎产 地 美国

◎类 别 剧情 / 动作 / 西部

◎语 言 英语

◎上映日期 1967-03-21

◎IMDb链接 https://www.imdb.com/title/tt0061770/

◎豆瓣评分 7.8/10 (316人评价)

◎豆瓣链接 https://movie.douban.com/subject/1299731/

◎片 长 111 分钟

◎导 演 马丁·里特 Martin Ritt (id:1032478)

◎编 剧 埃尔莫·伦纳德 Elmore Leonard (id:1027969)

小哈里特·弗兰克 Harriet Frank Jr. (id:1284104)

欧文·拉文奇 Irving Ravetch (id:1042352)

◎演 员 保罗·纽曼 Paul Newman (id:1054516)

弗雷德里克·马奇 Fredric March (id:1049865)

理查德·布恩 Richard Boone (id:1019098)

黛安妮·赛琳托 Diane Cilento (id:1027409)

卡梅隆·米切尔 Cameron Mitchell (id:1041239)

芭芭拉·拉什 Barbara Rush (id:1014099)

彼得拉泽 Peter Lazer (id:1104980)

弗兰克·斯尔维拉 Frank Silvera (id:1137540)

大卫·卡纳里 David Canary (id:1078722)

Linda Cordova Linda Cordova (id:1077174)

Larry Ward Larry Ward (id:1028212)

马丁·鲍尔萨姆 Martin Balsam (id:1041188)

斯基普·沃德 Skip Ward (id:1050581)

瓦尔·埃弗里 Val Avery (id:1059246)

玛格丽特·布赖 Margaret Blye (id:1063321)

欧文·拉文奇 Irving Ravetch (id:1042352)

马丁·里特 Martin Ritt (id:1032478)

大卫·罗丝 David Rose (id:1140037)

黄宗霑 James Wong Howe (id:1050408)

弗兰克·布拉赫特 Frank Bracht (id:1017385)

罗伯特·埃梅特·史密斯 Robert Emmet Smith (id:1026426)

杰克·马丁·史密斯 Jack Martin Smith (id:1017155)

沃尔特·M·斯科特 Walter M. Scott (id:1145204)

拉斐尔·布雷顿 Raphael Bretton (id:1067405)

唐菲尔德 Donfeld (id:1012760)

本·奈 Ben Nye (id:1126546)

William McGarry William McGarry (id:1122612)

Christopher Seitz Christopher Seitz (id:1039026)

◎标 签 美国 / 西部 / 西部片 / 保罗·纽曼 / 美国电影 / PaulNewman / 1960s / 1967

◎简 介

约翰·罗塞尔自幼是老罗塞尔先生从战俘中带回来并抚养他长大的,但是他生性豪放不羁,又回到土著人的中间,在茫茫山野间生活。直到老人去世时,留给他自己的一处房子,那里现在是一家旅馆,由能乾的杰茜经营。老人希望他回到白人中间,用英语思考问题。他却将房子变卖,杰茜只好回家。他们一行人从旅馆出发,一同乘坐马车的还有医生夫妇以及强行霸占别人位置的弗兰克。他们担心路上不安全,改走一条废弃的山路,却遭到一伙人的袭击,原来弗兰克是劫匪中的成员,目的是医生携带的不义之财。这伙人打破了他们的水袋,劫走了医生的妻子做人质。匆忙间,劫匪们遗失了钱袋,他们要用医生妻子换钱袋。胆小的医生不敢前去,一任妻子在炎炎烈日下呻吟。带领大家对付劫匪的罗塞尔冒死前往,在腹背受敌的不利情况下,只身对敌,为了营救他人与匪徒同归于尽。

  1. ##### MediaInfo ######

  2. General

  3. Unique ID : 290589972533490286366256291534146662349 (0xDA9D97CC7EA3FB801D9318E515786FCD)

  4. Complete name : [email protected]

  5. Format : Matroska

  6. Format version : Version 4

  7. File size : 2.95 GiB

  8. Duration : 1 h 50 min

  9. Overall bit rate : 3 830 kb/s

  10. Encoded date : UTC 2021-10-06 01:08:15

  11. Writing application : mkvmerge v56.1.0 ('My Friend') 64-bit

  12. Writing library : libebml v1.4.2 + libmatroska v1.6.4


  13. Video

  14. ID : 1

  15. Format : AVC

  16. Format/Info : Advanced Video Codec

  17. Format profile : [email protected]

  18. Format settings : CABAC / 1 Ref Frames

  19. Format settings, CABAC : Yes

  20. Format settings, Reference frames : 1 frame

  21. Format settings, GOP : M=1, N=60

  22. Codec ID : V_MPEG4/ISO/AVC

  23. Duration : 1 h 50 min

  24. Bit rate mode : Constant

  25. Bit rate : 3 702 kb/s

  26. Nominal bit rate : 4 000 kb/s

  27. Width : 1 920 pixels

  28. Height : 1 080 pixels

  29. Display aspect ratio : 16:9

  30. Frame rate mode : Constant

  31. Frame rate : 29.970 (30000/1001/53354) FPS

  32. Color space : YUV

  33. Chroma subsampling : 4:2:0

  34. Bit depth : 8 bits

  35. Scan type : Progressive

  36. Bits/(Pixel*Frame) : 0.060

  37. Stream size : 2.86 GiB (97%)

  38. Language : English

  39. Default : Yes

  40. Forced : No


  41. Audio

  42. ID : 2

  43. Format : AAC LC

  44. Format/Info : Advanced Audio Codec Low Complexity

  45. Codec ID : A_AAC-2

  46. Duration : 1 h 50 min

  47. Bit rate : 125 kb/s

  48. Channel(s) : 2 channels

  49. Channel layout : L R

  50. Sampling rate : 48.0 kHz

  51. Frame rate : 46.875 FPS (1024 SPF)

  52. Compression mode : Lossy

  53. Stream size : 99.1 MiB (3%)

  54. Title : English

  55. Language : English

  56. Default : Yes

  57. Forced : No


  58. Text #1

  59. ID : 3

  60. Format : UTF-8

  61. Codec ID : S_TEXT/UTF8

  62. Codec ID/Info : UTF-8 Plain Text

  63. Duration : 1 h 49 min

  64. Bit rate : 37 b/s

  65. Count of elements : 1283

  66. Stream size : 30.5 KiB (0%)

  67. Title : Chinese Simplified

  68. Language : Chinese

  69. Default : Yes

  70. Forced : No


  71. Text #2

  72. ID : 4

  73. Format : UTF-8

  74. Codec ID : S_TEXT/UTF8

  75. Codec ID/Info : UTF-8 Plain Text

  76. Duration : 1 h 49 min

  77. Bit rate : 37 b/s

  78. Count of elements : 1283

  79. Stream size : 30.5 KiB (0%)

  80. Title : Chinese Traditional

  81. Language : Chinese

  82. Default : No

  83. Forced : No




复制代码



文件下载


除非特别注明,本文『野狼[中文字幕].Hombre.1967.1080p.FriDay.WEB-DL.H264.AAC 2.96GB』来源于互联网机器人自动抓取,非本站原创。 浮游电影网不对本文拥有版权,如有侵犯,请联系邮箱:fuyouu#yandex.com[#换成@]投诉。我们会在15个工作日内删除。 但烦请转载时请标明出处:“本文转载于『浮游电影网』,原文地址:https://www.fuyouu.com/14780.html

评论吧骚年!

发表你的见解   

昵称*

E-mail*(建议输入,以便收到博主回复的提示邮件)

验证码*

您可以使用eMule或eMule Mod(Windows)、aMule(Win、Linux、Mac)等软件下载eD2k链接。。
eMule收藏集(.emulecollection)文件是您选中的所有链接的列表文件。eMule可以直接下载它们。
按住SHIFT键选择可以选中多个选择框。
可用文件名和大小选择器来选择文件。
文件名选择器帮您根据文件名称或后缀来选择文件。不分大小写。
符号使用:
和:空格( )、+
不包含:-
或:|
转义:一对英文引号("");
匹配开头:^
匹配结尾:$
例如:
选中所有名称中包含有“eMule”或“0.49c”字眼,但不包含有“exe”字眼的:emule|0.49c -exe
选中所有名称的开头是“eMule”,结尾是“0.49c”的:^emule 0.49c$
选中所有名称中带有“eMule 0.49c”的(必须是“eMule 0.49c”,中间没有别的字符,不能是“eMule fake 0.49c”),需要转义:"emule 0.49c"
大小选择器帮您根据文件大小选择文件。