当前位置: 首页 >> 海外电影 >> 三生计[中文字幕].Destiny.1921.1080p.FriDay.WEB-DL.H264.AAC 2.64GB >> 正文

三生计[中文字幕].Destiny.1921.1080p.FriDay.WEB-DL.H264.AAC 2.64GB

2021年10月06日 20:27:34     电影发布:来源于网络     电影分类:海外电影     评论(0)    

三生计[中文字幕].Destiny.1921.1080p.FriDay.WEB DL.H264.AAC 2.64GB 奇幻片 惊悚片 爱情片 海外电影  第1张

◎译 名 三生计 / 三生记(台) / 疲倦的死亡 / 命运 / Destiny

◎片 名 Der müde Tod

◎年 代 1921

◎产 地 德国

◎类 别 爱情 / 惊悚 / 奇幻

◎语 言 德语

◎上映日期 1921-10-06(德国)

◎IMDb链接 https://www.imdb.com/title/tt0012494/

◎豆瓣评分 8.4/10 (1546人评价)

◎豆瓣链接 https://movie.douban.com/subject/1470246/

◎片 长 105 分钟

◎导 演 弗里茨·朗 Fritz Lang (id:1036593)

◎编 剧 弗里茨·朗 Fritz Lang (id:1036593)

特娅·冯·哈堡 Thea von Harbou (id:1016795)

◎演 员 丽尔·达戈沃 Lil Dagover (id:1028305)

沃尔特·扬森 Walter Janssen (id:1114577)

伯恩哈德·格茨克 Bernhard Goetzke (id:1095893)

汉斯·斯腾伯格 Hans Sternberg (id:1151524)

卡尔·吕克特 Karl Rückert (id:1364742)

麦克斯·阿德尔伯特 Max Adalbert (id:1057391)

威廉·迪格尔曼 Wilhelm Diegelmann (id:1082235)

埃里希·帕布斯特 Erich Pabst (id:1132717)

格奥尔格·约翰 Georg John (id:1093498)

Lothar Müthel Lothar Müthel (id:1137170)

保罗·雷科普夫 Paul Rehkopf (id:1142116)

Ernst Rückert Ernst Rückert (id:1146748)

赫尔曼·瓦伦丁 Hermann Vallentin (id:1159767)

爱德华·冯·温特施泰因 Eduard von Winterstein (id:1162980)

鲁道夫·克莱恩-鲁格 Rudolf Klein-Rogge (id:1037121)

埃德加·保利 Edgar Pauly (id:1132322)

卡尔·普拉滕 Karl Platen (id:1132186)

保罗·比安斯费尔特 Paul Biensfeldt (id:1061691)

格蕾特·贝格尔 Grete Berger (id:1065822)

刘易斯·布罗迪 Lewis Brody (id:1069453)

Edgar Klitzsch Edgar Klitzsch (id:1113736)

Hermann Picha Hermann Picha (id:1130653)

莉迪娅·波捷奇纳 Lydia Potechina (id:1130925)

查理·普菲 Charles Puffy (id:1112576)

艾里奇·鲍默 Erich Pommer (id:1012755)

Giuseppe Becce Giuseppe Becce (id:1008400)

Peter Schirmann Peter Schirmann (id:1026215)

卡·扎基 Karl-Ernst Sasse (id:1039132)

Bruno Mondi Bruno Mondi (id:1030427)

費立茲·華格納 Fritz Arno Wagner (id:1038245)

弗里茨·朗 Fritz Lang (id:1036593)

Walter R?hrig Walter R?hrig (id:1003876)

Robert Herlth Robert Herlth (id:1048928)

赫尔曼·伐尔姆 Hermann Warm (id:1048736)

◎标 签 德国 / 默片 / 表现主义 / 1921 / 黑白 / 奇幻 / 爱情 / 惊悚

◎简 介

死神来到人世,住在一幅没有门户的围墙后面,死去的亡魂穿过围墙去到异界。

一对情侣遇上了死神,男的被他带走,女的哀求死神放过她的情人。死神给了她三次保住爱郎性命的机会,于是她在中世纪威尼斯、古代波斯与幻想的中国经历了三次生离死别……天马行空的画面让《命运》迟了两年才登陆美国,只因大明星道格拉斯·菲滨氏买下此片美国版权,在自己的大片《月宫宝盒》中借用其中精彩特技,等到《月》片映期结束,才安排在美国上映。

  1. ##### MediaInfo ######

  2. General

  3. Unique ID : 48133512683628946872798799946426624923 (0x24362D6631751E87B0DB2E94713C2B9B)

  4. Complete name : [email protected]

  5. Format : Matroska

  6. Format version : Version 4

  7. File size : 2.64 GiB

  8. Duration : 1 h 36 min

  9. Overall bit rate : 3 919 kb/s

  10. Encoded date : UTC 2021-10-06 01:31:56

  11. Writing application : mkvmerge v56.1.0 ('My Friend') 64-bit

  12. Writing library : libebml v1.4.2 + libmatroska v1.6.4


  13. Video

  14. ID : 1

  15. Format : AVC

  16. Format/Info : Advanced Video Codec

  17. Format profile : [email protected]

  18. Format settings : CABAC / 1 Ref Frames

  19. Format settings, CABAC : Yes

  20. Format settings, Reference frames : 1 frame

  21. Format settings, GOP : M=1, N=60

  22. Codec ID : V_MPEG4/ISO/AVC

  23. Duration : 1 h 36 min

  24. Bit rate mode : Constant

  25. Bit rate : 3 791 kb/s

  26. Nominal bit rate : 4 000 kb/s

  27. Width : 1 920 pixels

  28. Height : 1 080 pixels

  29. Display aspect ratio : 16:9

  30. Frame rate mode : Constant

  31. Frame rate : 29.970 (30000/1001/53354) FPS

  32. Color space : YUV

  33. Chroma subsampling : 4:2:0

  34. Bit depth : 8 bits

  35. Scan type : Progressive

  36. Bits/(Pixel*Frame) : 0.061

  37. Stream size : 2.55 GiB (97%)

  38. Default : Yes

  39. Forced : No


  40. Audio

  41. ID : 2

  42. Format : AAC LC

  43. Format/Info : Advanced Audio Codec Low Complexity

  44. Codec ID : A_AAC-2

  45. Duration : 1 h 36 min

  46. Bit rate : 125 kb/s

  47. Channel(s) : 2 channels

  48. Channel layout : L R

  49. Sampling rate : 48.0 kHz

  50. Frame rate : 46.875 FPS (1024 SPF)

  51. Compression mode : Lossy

  52. Stream size : 86.4 MiB (3%)

  53. Language : German

  54. Default : Yes

  55. Forced : No


  56. Text #1

  57. ID : 3

  58. Format : UTF-8

  59. Codec ID : S_TEXT/UTF8

  60. Codec ID/Info : UTF-8 Plain Text

  61. Duration : 1 h 36 min

  62. Bit rate : 15 b/s

  63. Count of elements : 355

  64. Stream size : 11.3 KiB (0%)

  65. Title : Chinese Simplified

  66. Language : Chinese

  67. Default : Yes

  68. Forced : No


  69. Text #2

  70. ID : 4

  71. Format : UTF-8

  72. Codec ID : S_TEXT/UTF8

  73. Codec ID/Info : UTF-8 Plain Text

  74. Duration : 1 h 36 min

  75. Bit rate : 15 b/s

  76. Count of elements : 355

  77. Stream size : 11.3 KiB (0%)

  78. Title : Chinese Traditional

  79. Language : Chinese

  80. Default : No

  81. Forced : No




复制代码



文件下载


除非特别注明,本文『三生计[中文字幕].Destiny.1921.1080p.FriDay.WEB-DL.H264.AAC 2.64GB』来源于互联网机器人自动抓取,非本站原创。 浮游电影网不对本文拥有版权,如有侵犯,请联系邮箱:fuyouu#yandex.com[#换成@]投诉。我们会在15个工作日内删除。 但烦请转载时请标明出处:“本文转载于『浮游电影网』,原文地址:https://www.fuyouu.com/14779.html

评论吧骚年!

发表你的见解   

昵称*

E-mail*(建议输入,以便收到博主回复的提示邮件)

验证码*

您可以使用eMule或eMule Mod(Windows)、aMule(Win、Linux、Mac)等软件下载eD2k链接。。
eMule收藏集(.emulecollection)文件是您选中的所有链接的列表文件。eMule可以直接下载它们。
按住SHIFT键选择可以选中多个选择框。
可用文件名和大小选择器来选择文件。
文件名选择器帮您根据文件名称或后缀来选择文件。不分大小写。
符号使用:
和:空格( )、+
不包含:-
或:|
转义:一对英文引号("");
匹配开头:^
匹配结尾:$
例如:
选中所有名称中包含有“eMule”或“0.49c”字眼,但不包含有“exe”字眼的:emule|0.49c -exe
选中所有名称的开头是“eMule”,结尾是“0.49c”的:^emule 0.49c$
选中所有名称中带有“eMule 0.49c”的(必须是“eMule 0.49c”,中间没有别的字符,不能是“eMule fake 0.49c”),需要转义:"emule 0.49c"
大小选择器帮您根据文件大小选择文件。