当前位置: 首页 >> 欧美电影 >> 出租车司机[中文字幕].Taxi.Driver.1976.2160p.HDR.UHD.BluRay.DTS-HD.MA.5.1.x265-10bit 15.40GB >> 正文

出租车司机[中文字幕].Taxi.Driver.1976.2160p.HDR.UHD.BluRay.DTS-HD.MA.5.1.x265-10bit 15.40GB

2021年10月06日 20:26:09     电影发布:来源于网络     电影分类:欧美电影     评论(0)    

出租车司机[中文字幕].Taxi.Driver.1976.2160p.HDR.UHD.BluRay.DTS HD.MA.5.1.x265 10bit 15.40GB 犯罪片 剧情片 欧美电影  第1张

◎译 名 出租车司机 / 的士司机(港) / 计程车司机(台) / 出租汽车司机

◎片 名 Taxi Driver

◎年 代 1976

◎产 地 美国

◎类 别 剧情 / 犯罪

◎语 言 英语 / 西班牙语

◎上映日期 1976-02-08(美国)

◎IMDb链接 https://www.imdb.com/title/tt0075314/

◎豆瓣评分 8.5/10 (173766人评价)

◎豆瓣链接 https://movie.douban.com/subject/1292222/

◎片 长 113分钟

◎导 演 马丁·斯科塞斯 Martin Scorsese (id:1054425)

◎编 剧 保罗·施拉德 Paul Schrader (id:1009525)

◎演 员 罗伯特·德尼罗 Robert De Niro (id:1054445)

朱迪·福斯特 Jodie Foster (id:1031222)

斯碧尔·谢波德 Cybill Shepherd (id:1007016)

艾伯特·布鲁克斯 Albert Brooks (id:1010594)

哈威·凯特尔 Harvey Keitel (id:1048131)

戴安娜·阿伯特 Diahnne Abbott (id:1055612)

维克多·阿尔果 Victor Argo (id:1041397)

吉诺·阿迪托 Gino Ardito (id:1059449)

彼得·博伊尔 Peter Boyle (id:1054868)

布伦达·迪克森 Brenda Dickson (id:1005363)

马丁·斯科塞斯 Martin Scorsese (id:1054425)

玛丽-帕特·格林 Mary-Pat Green (id:1329410)

伯纳德·赫尔曼 Bernard Herrmann (id:1012539)

茱莉叶·泰勒 Juliet Taylor (id:1299000)

Charles Rosen Charles Rosen (id:1296061)

Mona Orr Mona Orr (id:1293642)

◎标 签 美国 / 经典 / 暴力 / 剧情 / 犯罪 / 人性 / 1976 / 黑色

◎简 介

特拉维斯(罗伯特·德尼罗 Robert De Niro 饰)从越战中退伍回来后一直在纽约以开出租车为生。战争后的他多少有些失落,加上开出租车目睹了纽约夜幕下的种种罪恶,令他变得愤世嫉俗、痛恨社会。在追求总统候选人帕兰坦竞选办公室的秘书贝西失败后,特拉维斯决定去刺杀帕兰坦 以证明自己。

在准备刺杀行动的过程中,特拉维斯遇上了被逼卖淫的雏妓艾瑞斯。在企图救艾瑞斯出火坑未果后,特拉维斯手持武器闯进淫窝,将里面的一干人等通通干掉了!本以为即将收到法律的惩罚,然而媒体却将特拉维斯描述成了一个拯救少女的英雄……

◎获奖情况 (共6项)

第49届奥斯卡金像奖 (1977)

最佳影片(提名)

最佳男主角(提名)

└──罗伯特·德尼罗 (id:1054445)

最佳女配角(提名)

└──朱迪·福斯特 (id:1031222)

最佳原创配乐(提名)

└──伯纳德·赫尔曼 (id:1012539)

第29届戛纳电影节 (1976)

主竞赛单元 金棕榈奖

└──马丁·斯科塞斯 (id:1054425)

第1届报知映画赏 (1976)

海外作品奖

└──马丁·斯科塞斯 (id:1054425)

  1. ##### MediaInfo ######

  2. General

  3. Unique ID : 49612210886596706532364968060646959071 (0x2552F6D970B50D4BD6F0B5B28E49A7DF)

  4. Complete name : [email protected]Q.COM.mkv

  5. Format : Matroska

  6. Format version : Version 4

  7. File size : 15.4 GiB

  8. Duration : 1 h 53 min

  9. Overall bit rate mode : Variable

  10. Overall bit rate : 19.4 Mb/s

  11. Movie name : Taxi Driver 1976 2160p HDR UHD BluRay DTS [email protected]

  12. Encoded date : UTC 2021-10-04 14:32:02

  13. Writing application : mkvmerge v38.0.0 ('The Silent Type') 64-bit

  14. Writing library : libebml v1.3.9 + libmatroska v1.5.2


  15. Video

  16. ID : 1

  17. Format : HEVC

  18. Format/Info : High Efficiency Video Coding

  19. Format profile : Main [email protected]@High

  20. HDR format : SMPTE ST 2086, HDR10 compatible

  21. Codec ID : V_MPEGH/ISO/HEVC

  22. Duration : 1 h 53 min

  23. Bit rate : 17.1 Mb/s

  24. Width : 3 840 pixels

  25. Height : 2 072 pixels

  26. Display aspect ratio : 1.85:1

  27. Frame rate mode : Constant

  28. Frame rate : 23.976 (24000/1001/53354) FPS

  29. Color space : YUV

  30. Chroma subsampling : 4:2:0

  31. Bit depth : 10 bits

  32. Bits/(Pixel*Frame) : 0.090

  33. Stream size : 13.6 GiB (88%)

  34. Title : @HDSky

  35. Writing library : x265 - H.265/HEVC codec

  36. Default : Yes

  37. Forced : No

  38. Color range : Limited

  39. Color primaries : BT.2020

  40. Transfer characteristics : PQ

  41. Matrix coefficients : BT.2020 non-constant

  42. Mastering display color primaries : Display P3

  43. Mastering display luminance : min: 0.0020 cd/m2, max: 1000 cd/m2

  44. Maximum Content Light Level : 739 cd/m2

  45. Maximum Frame-Average Light Level : 331 cd/m2


  46. Audio

  47. ID : 2

  48. Format : DTS XLL

  49. Format/Info : Digital Theater Systems

  50. Commercial name : DTS-HD Master Audio

  51. Codec ID : A_DTS

  52. Duration : 1 h 53 min

  53. Bit rate mode : Variable

  54. Bit rate : 2 143 kb/s

  55. Channel(s) : 6 channels

  56. Channel layout : C L R Ls Rs LFE

  57. Sampling rate : 48.0 kHz

  58. Frame rate : 93.750 FPS (512 SPF)

  59. Bit depth : 16 bits

  60. Compression mode : Lossless

  61. Stream size : 1.70 GiB (11%)

  62. Title : English

  63. Language : English

  64. Default : Yes

  65. Forced : No


  66. Text #1

  67. ID : 3

  68. Format : PGS

  69. Muxing mode : zlib

  70. Codec ID : S_HDMV/PGS

  71. Codec ID/Info : Picture based subtitle format used on BDs/HD-DVDs

  72. Duration : 1 h 50 min

  73. Bit rate : 34.3 kb/s

  74. Count of elements : 2695

  75. Stream size : 27.0 MiB (0%)

  76. Title : ENG

  77. Language : English

  78. Default : Yes

  79. Forced : No


  80. Text #2

  81. ID : 4

  82. Format : PGS

  83. Muxing mode : zlib

  84. Codec ID : S_HDMV/PGS

  85. Codec ID/Info : Picture based subtitle format used on BDs/HD-DVDs

  86. Duration : 1 h 51 min

  87. Bit rate : 27.9 kb/s

  88. Count of elements : 2511

  89. Stream size : 22.2 MiB (0%)

  90. Title : CHS

  91. Language : Chinese

  92. Default : No

  93. Forced : No


  94. Text #3

  95. ID : 5

  96. Format : PGS

  97. Muxing mode : zlib

  98. Codec ID : S_HDMV/PGS

  99. Codec ID/Info : Picture based subtitle format used on BDs/HD-DVDs

  100. Duration : 1 h 51 min

  101. Bit rate : 27.2 kb/s

  102. Count of elements : 2511

  103. Stream size : 21.7 MiB (0%)

  104. Title : CHT

  105. Language : Chinese

  106. Default : No

  107. Forced : No


  108. Text #4

  109. ID : 6

  110. Format : PGS

  111. Muxing mode : zlib

  112. Codec ID : S_HDMV/PGS

  113. Codec ID/Info : Picture based subtitle format used on BDs/HD-DVDs

  114. Duration : 1 h 49 min

  115. Bit rate : 49.9 kb/s

  116. Count of elements : 2527

  117. Stream size : 39.1 MiB (0%)

  118. Title : CHS&ENG

  119. Language : Chinese

  120. Default : No

  121. Forced : No


  122. Text #5

  123. ID : 7

  124. Format : PGS

  125. Muxing mode : zlib

  126. Codec ID : S_HDMV/PGS

  127. Codec ID/Info : Picture based subtitle format used on BDs/HD-DVDs

  128. Duration : 1 h 49 min

  129. Bit rate : 50.6 kb/s

  130. Count of elements : 2527

  131. Stream size : 39.7 MiB (0%)

  132. Title : CHT&ENG

  133. Language : Chinese

  134. Default : No

  135. Forced : No


  136. Menu

  137. 00:00:00.000 : en:Chapter 01

  138. 00:10:59.033 : en:Chapter 02

  139. 00:20:05.037 : en:Chapter 03

  140. 00:28:21.031 : en:Chapter 04

  141. 00:33:12.198 : en:Chapter 05

  142. 00:40:11.574 : en:Chapter 06

  143. 00:44:03.641 : en:Chapter 07

  144. 00:51:42.139 : en:Chapter 08

  145. 01:01:10.541 : en:Chapter 09

  146. 01:08:11.795 : en:Chapter 10

  147. 01:14:49.025 : en:Chapter 11

  148. 01:24:46.038 : en:Chapter 12

  149. 01:29:42.752 : en:Chapter 13

  150. 01:34:11.979 : en:Chapter 14

  151. 01:38:02.417 : en:Chapter 15

  152. 01:45:57.893 : en:Chapter 16




复制代码



文件下载


除非特别注明,本文『出租车司机[中文字幕].Taxi.Driver.1976.2160p.HDR.UHD.BluRay.DTS-HD.MA.5.1.x265-10bit 15.40GB』来源于互联网机器人自动抓取,非本站原创。 浮游电影网不对本文拥有版权,如有侵犯,请联系邮箱:fuyouu#yandex.com[#换成@]投诉。我们会在15个工作日内删除。 但烦请转载时请标明出处:“本文转载于『浮游电影网』,原文地址:https://www.fuyouu.com/14778.html

评论吧骚年!

发表你的见解   

昵称*

E-mail*(建议输入,以便收到博主回复的提示邮件)

验证码*

您可以使用eMule或eMule Mod(Windows)、aMule(Win、Linux、Mac)等软件下载eD2k链接。。
eMule收藏集(.emulecollection)文件是您选中的所有链接的列表文件。eMule可以直接下载它们。
按住SHIFT键选择可以选中多个选择框。
可用文件名和大小选择器来选择文件。
文件名选择器帮您根据文件名称或后缀来选择文件。不分大小写。
符号使用:
和:空格( )、+
不包含:-
或:|
转义:一对英文引号("");
匹配开头:^
匹配结尾:$
例如:
选中所有名称中包含有“eMule”或“0.49c”字眼,但不包含有“exe”字眼的:emule|0.49c -exe
选中所有名称的开头是“eMule”,结尾是“0.49c”的:^emule 0.49c$
选中所有名称中带有“eMule 0.49c”的(必须是“eMule 0.49c”,中间没有别的字符,不能是“eMule fake 0.49c”),需要转义:"emule 0.49c"
大小选择器帮您根据文件大小选择文件。