当前位置: 首页 >> 国产电影 >> 日常幻想指南[国语配音/中文字幕].Daily.Fantasy.2021.WEB-DL.4K.H265.AAC.5.1 4.06GB >> 正文

日常幻想指南[国语配音/中文字幕].Daily.Fantasy.2021.WEB-DL.4K.H265.AAC.5.1 4.06GB

2021年10月06日 20:16:10     电影发布:来源于网络     电影分类:国产电影     评论(0)    

日常幻想指南[国语配音/中文字幕].Daily.Fantasy.2021.WEB DL.4K.H265.AAC.5.1 4.06GB 奇幻片 爱情片 喜剧片 国产电影  第1张

◎译 名 日常幻想指南 / Daily Fantasy

◎年 代 2021

◎产 地 中国大陆

◎类 别 喜剧 / 爱情 / 奇幻

◎语 言 汉语普通话

◎上映日期 2021-09-19(中国大陆)

◎IMDb链接 https://www.imdb.com/title//

◎豆瓣评分 5.3/10 (4868人评价)

◎豆瓣链接 https://movie.douban.com/subject/26823520/

◎片 长 98分钟

◎导 演 梁栋 Dong Liang (id:1359216)

◎编 剧 梁栋 Dong Liang (id:1359216)

◎演 员 王彦霖 Yanlin Wang (id:1350317)

焦俊艳 Junyan Jiao (id:1312818)

高捷 Jack Kao (id:1276076)

闵健 Jian Min (id:1365862)

罗辑 Ji Luo (id:1417084)

张子栋 Zi-Dong Zhang (id:1316364)

林更新 Gengxin Lin (id:1314535)

包贝尔 Bei'er Bao (id:1315866)

张海宇 Haiyu Zhang (id:1364842)

曾江 Kenneth Tsang (id:1275451)

阳蕾 Lei Yang (id:1453510)

张雪峰 Xuefeng Zhang (id:1396873)

大兵 Da Bing (id:1355030)

梁缘 Yuan Liang (id:1376841)

琥玛尔 (id:1417085)

霍文琦 Wenqi Huo (id:1448453)

孙伟 Wei Sun (id:1384466)

廖婧希 (id:1417317)

谢征宇 Zhengyu Xie (id:1397414)

孙要兵 (id:1417086)

张晓兵 Xiaobing Zhang (id:1355736)

付雷 Lei Fu (id:1417087)

焦磊 (id:1417088)

◎标 签 喜剧 / 奇幻 / 超能力 / 中国大陆 / 漫画改编 / 2021 / 国产 / 剧情

◎简 介

改编自网络同名人气连载漫画,电影讲述了男主角阿震(王彦霖 饰)在一次意外后竟获得了和静物沟通的超能力,这个能力让他的生活发生了翻天覆地的变化,就在这时阿震重逢了学生时代的初恋草莓(焦俊艳 饰)……生活陷入混乱的阿震为了回归原本的生活,与静物们展开了一段精彩故事……

  1. ##### MediaInfo ######

  2. General

  3. Unique ID : 314829816896493743092630478676297813053 (0xECDA04658F7F3C975275A9565A808C3D)

  4. Complete name : Daily Fantasy 2021 WEB-DL 4K H265 AAC [email protected]

  5. Format : Matroska

  6. Format version : Version 4

  7. File size : 4.06 GiB

  8. Duration : 1 h 38 min

  9. Overall bit rate : 5 915 kb/s

  10. Encoded date : UTC 2021-10-05 02:32:07

  11. Writing application : mkvmerge v61.0.0 ('So') 64-bit

  12. Writing library : libebml v1.4.2 + libmatroska v1.6.4


  13. Video

  14. ID : 1

  15. Format : HEVC

  16. Format/Info : High Efficiency Video Coding

  17. Format profile : [email protected]@Main

  18. Codec ID : V_MPEGH/ISO/HEVC

  19. Duration : 1 h 38 min

  20. Bit rate : 5 782 kb/s

  21. Width : 3 840 pixels

  22. Height : 1 626 pixels

  23. Display aspect ratio : 2.35:1

  24. Frame rate mode : Constant

  25. Frame rate : 24.000 FPS

  26. Color space : YUV

  27. Chroma subsampling : 4:2:0

  28. Bit depth : 8 bits

  29. Bits/(Pixel*Frame) : 0.039

  30. Stream size : 3.97 GiB (98%)

  31. Writing library : HW265_Code

  32. Default : Yes

  33. Forced : No

  34. Color range : Limited

  35. Color primaries : BT.709

  36. Transfer characteristics : BT.709

  37. Matrix coefficients : BT.709


  38. Audio

  39. ID : 2

  40. Format : AAC LC SBR

  41. Format/Info : Advanced Audio Codec Low Complexity with Spectral Band Replication

  42. Commercial name : HE-AAC

  43. Format settings : NBC

  44. Codec ID : A_AAC-5

  45. Duration : 1 h 38 min

  46. Bit rate : 132 kb/s

  47. Channel(s) : 6 channels

  48. Channel layout : C L R Ls Rs LFE

  49. Sampling rate : 48.0 kHz

  50. Frame rate : 23.438 FPS (2048 SPF)

  51. Compression mode : Lossy

  52. Stream size : 92.1 MiB (2%)

  53. Language : Chinese

  54. Default : Yes

  55. Forced : No




复制代码



文件下载


除非特别注明,本文『日常幻想指南[国语配音/中文字幕].Daily.Fantasy.2021.WEB-DL.4K.H265.AAC.5.1 4.06GB』来源于互联网机器人自动抓取,非本站原创。 浮游电影网不对本文拥有版权,如有侵犯,请联系邮箱:fuyouu#yandex.com[#换成@]投诉。我们会在15个工作日内删除。 但烦请转载时请标明出处:“本文转载于『浮游电影网』,原文地址:https://www.fuyouu.com/14770.html

评论吧骚年!

发表你的见解   

昵称*

E-mail*(建议输入,以便收到博主回复的提示邮件)

验证码*

您可以使用eMule或eMule Mod(Windows)、aMule(Win、Linux、Mac)等软件下载eD2k链接。。
eMule收藏集(.emulecollection)文件是您选中的所有链接的列表文件。eMule可以直接下载它们。
按住SHIFT键选择可以选中多个选择框。
可用文件名和大小选择器来选择文件。
文件名选择器帮您根据文件名称或后缀来选择文件。不分大小写。
符号使用:
和:空格( )、+
不包含:-
或:|
转义:一对英文引号("");
匹配开头:^
匹配结尾:$
例如:
选中所有名称中包含有“eMule”或“0.49c”字眼,但不包含有“exe”字眼的:emule|0.49c -exe
选中所有名称的开头是“eMule”,结尾是“0.49c”的:^emule 0.49c$
选中所有名称中带有“eMule 0.49c”的(必须是“eMule 0.49c”,中间没有别的字符,不能是“eMule fake 0.49c”),需要转义:"emule 0.49c"
大小选择器帮您根据文件大小选择文件。