当前位置: 首页 >> 海外电影 >> 男人的争斗[中文字幕].Rififi.1955.1080p.FriDay.WEB-DL.H264.AAC 3.26GB >> 正文

男人的争斗[中文字幕].Rififi.1955.1080p.FriDay.WEB-DL.H264.AAC 3.26GB

2021年10月06日 20:15:01     电影发布:来源于网络     电影分类:海外电影     评论(0)    

男人的争斗[中文字幕].Rififi.1955.1080p.FriDay.WEB DL.H264.AAC 3.26GB 犯罪片 惊悚片 剧情片 海外电影  第1张

◎译 名 男人的争斗 / 警匪大决战 / Rififi

◎片 名 Du rififi chez les hommes

◎年 代 1955

◎产 地 法国

◎类 别 剧情 / 惊悚 / 犯罪

◎语 言 法语 / 意大利语

◎上映日期 1955-04-13

◎IMDb链接 https://www.imdb.com/title/tt0048021/

◎豆瓣评分 8.6/10 (3642人评价)

◎豆瓣链接 https://movie.douban.com/subject/1299885/

◎片 长 118分钟

◎导 演 朱尔斯·达辛 Jules Dassin (id:1036836)

◎编 剧 朱尔斯·达辛 Jules Dassin (id:1036836)

奥古斯特·布里多 Auguste Le Breton (id:1006057)

勒·惠勒 René Wheeler (id:1006748)

◎演 员 吉恩·塞维斯 Jean Servais (id:1028486)

罗伯特·曼努埃尔 Robert Manuel (id:1123260)

卡尔·蒙纳 Carl M?hner (id:1128959)

朱尔斯·达辛 Jules Dassin (id:1036836)

罗贝尔·侯赛因 Robert Hossein (id:1016766)

Marcel Lupovici Marcel Lupovici (id:1124847)

多米尼克·莫林 Dominique Maurin (id:1073801)

玛加莉·诺埃尔 Magali No?l (id:1012615)

Marie Sabouret Marie Sabouret (id:1144602)

雅宁·达尔塞 Janine Darcey (id:1081891)

Roger Rudel Roger Rudel (id:1339865)

Pierre Grasset Pierre Grasset (id:1339861)

克洛德·西尔万 Claude Sylvain (id:1157553)

◎标 签 法国 / 犯罪 / 朱尔斯·达辛 / 黑色电影 / 1955 / 法国电影 / 黑白 / 黑色

◎简 介

因盗窃罪被判入狱五年的Tony(吉恩·塞维斯 Jean Servais 饰)出狱了,他的朋友Jo(Carl M?hner 饰)想和他再去盗一个珠宝店,被Tony拒绝了。Tony想找回他以前的女友Mado,然而此时Mado却和另一个黑帮老大Grutter在一起。Tony很气愤,打了Mado,并且决心重新赢回Mado。于是他答应了Jo,并联合Mario和César一共四人展开了盗窃珠宝店的行动。行动实施得非常顺利,César还拿了一个钻石戒指送给他的女友Viviane。Viviane是Grutter的酒吧里的女歌手,Grutter发现了这个戒指,认为Tony和César是盗窃者;同时,Mado提出要离开Grutter,Grutter知道是因为Tony的缘故,于是派人去杀死Tony......

本片根据法国作家Auguste le Breton's的同名小...

◎获奖情况 (共2项)

第8届戛纳电影节 (1955)

主竞赛单元 金棕榈奖(提名)

└──朱尔斯·达辛 (id:1036836)

主竞赛单元 最佳导演

└──朱尔斯·达辛 (id:1036836)

  1. ##### MediaInfo ######

  2. General

  3. Unique ID : 282140012193395671708017970929467437329 (0xD4423096AFEBBAA09A24A399DC20B111)

  4. Complete name : [email protected]

  5. Format : Matroska

  6. Format version : Version 4

  7. File size : 3.26 GiB

  8. Duration : 1 h 58 min

  9. Overall bit rate : 3 954 kb/s

  10. Encoded date : UTC 2021-10-05 10:06:02

  11. Writing application : mkvmerge v56.1.0 ('My Friend') 64-bit

  12. Writing library : libebml v1.4.2 + libmatroska v1.6.4


  13. Video

  14. ID : 1

  15. Format : AVC

  16. Format/Info : Advanced Video Codec

  17. Format profile : [email protected]

  18. Format settings : CABAC / 1 Ref Frames

  19. Format settings, CABAC : Yes

  20. Format settings, Reference frames : 1 frame

  21. Format settings, GOP : M=1, N=60

  22. Codec ID : V_MPEG4/ISO/AVC

  23. Duration : 1 h 58 min

  24. Bit rate mode : Constant

  25. Bit rate : 4 000 kb/s

  26. Width : 1 920 pixels

  27. Height : 1 080 pixels

  28. Display aspect ratio : 16:9

  29. Frame rate mode : Constant

  30. Frame rate : 29.970 (30000/1001/53354) FPS

  31. Color space : YUV

  32. Chroma subsampling : 4:2:0

  33. Bit depth : 8 bits

  34. Scan type : Progressive

  35. Bits/(Pixel*Frame) : 0.064

  36. Stream size : 3.15 GiB (97%)

  37. Language : English

  38. Default : Yes

  39. Forced : No


  40. Audio

  41. ID : 2

  42. Format : AAC LC

  43. Format/Info : Advanced Audio Codec Low Complexity

  44. Codec ID : A_AAC-2

  45. Duration : 1 h 58 min

  46. Bit rate : 125 kb/s

  47. Channel(s) : 2 channels

  48. Channel layout : L R

  49. Sampling rate : 48.0 kHz

  50. Frame rate : 46.875 FPS (1024 SPF)

  51. Compression mode : Lossy

  52. Stream size : 106 MiB (3%)

  53. Title : French

  54. Language : French

  55. Default : Yes

  56. Forced : No


  57. Text #1

  58. ID : 3

  59. Format : UTF-8

  60. Codec ID : S_TEXT/UTF8

  61. Codec ID/Info : UTF-8 Plain Text

  62. Duration : 1 h 57 min

  63. Bit rate : 24 b/s

  64. Count of elements : 710

  65. Stream size : 21.3 KiB (0%)

  66. Title : Chinese Simplified

  67. Language : Chinese

  68. Default : Yes

  69. Forced : No


  70. Text #2

  71. ID : 4

  72. Format : UTF-8

  73. Codec ID : S_TEXT/UTF8

  74. Codec ID/Info : UTF-8 Plain Text

  75. Duration : 1 h 57 min

  76. Bit rate : 24 b/s

  77. Count of elements : 710

  78. Stream size : 21.3 KiB (0%)

  79. Title : Chinese Traditional

  80. Language : Chinese

  81. Default : No

  82. Forced : No




复制代码



文件下载


除非特别注明,本文『男人的争斗[中文字幕].Rififi.1955.1080p.FriDay.WEB-DL.H264.AAC 3.26GB』来源于互联网机器人自动抓取,非本站原创。 浮游电影网不对本文拥有版权,如有侵犯,请联系邮箱:fuyouu#yandex.com[#换成@]投诉。我们会在15个工作日内删除。 但烦请转载时请标明出处:“本文转载于『浮游电影网』,原文地址:https://www.fuyouu.com/14769.html

评论吧骚年!

发表你的见解   

昵称*

E-mail*(建议输入,以便收到博主回复的提示邮件)

验证码*

您可以使用eMule或eMule Mod(Windows)、aMule(Win、Linux、Mac)等软件下载eD2k链接。。
eMule收藏集(.emulecollection)文件是您选中的所有链接的列表文件。eMule可以直接下载它们。
按住SHIFT键选择可以选中多个选择框。
可用文件名和大小选择器来选择文件。
文件名选择器帮您根据文件名称或后缀来选择文件。不分大小写。
符号使用:
和:空格( )、+
不包含:-
或:|
转义:一对英文引号("");
匹配开头:^
匹配结尾:$
例如:
选中所有名称中包含有“eMule”或“0.49c”字眼,但不包含有“exe”字眼的:emule|0.49c -exe
选中所有名称的开头是“eMule”,结尾是“0.49c”的:^emule 0.49c$
选中所有名称中带有“eMule 0.49c”的(必须是“eMule 0.49c”,中间没有别的字符,不能是“eMule fake 0.49c”),需要转义:"emule 0.49c"
大小选择器帮您根据文件大小选择文件。