当前位置: 首页 >> 欧美电影 >> 历劫佳人[中文字幕].Touch.of.Evil.1958.1080p.FriDay.WEB-DL.H264.AAC 2.99GB >> 正文

历劫佳人[中文字幕].Touch.of.Evil.1958.1080p.FriDay.WEB-DL.H264.AAC 2.99GB

2021年10月06日 20:13:17     电影发布:来源于网络     电影分类:欧美电影     评论(0)    

历劫佳人[中文字幕].Touch.of.Evil.1958.1080p.FriDay.WEB DL.H264.AAC 2.99GB 黑色电影 犯罪片 惊悚片 欧美电影  第1张

◎译 名 历劫佳人 / 狂野生死恋 / 历劫名花 / 邪恶的接触 / 邪恶之触 / 恶之触

◎片 名 Touch of Evil

◎年 代 1958

◎产 地 美国

◎类 别 惊悚 / 犯罪 / 黑色电影

◎语 言 英语 / 西班牙语

◎上映日期 1958-04-23(美国)

◎IMDb链接 https://www.imdb.com/title/tt0052311/

◎豆瓣评分 8.1/10 (9171人评价)

◎豆瓣链接 https://movie.douban.com/subject/1294756/

◎片 长 95分钟(剧场版)

◎导 演 奥逊·威尔斯 Orson Welles (id:1048149)

◎编 剧 奥逊·威尔斯 Orson Welles (id:1048149)

惠特·马斯特森 Whit Masterson (id:1367341)

◎演 员 查尔顿·赫斯顿 Charlton Heston (id:1027817)

珍妮特·利 Janet Leigh (id:1010616)

奥逊·威尔斯 Orson Welles (id:1048149)

约瑟夫·卡利亚 Joseph Calleia (id:1023053)

阿基姆·坦米罗夫 Akim Tamiroff (id:1149432)

乔安娜·摩尔 Joanna Moore (id:1130563)

雷·柯林斯 Ray Collins (id:1069619)

丹尼斯·韦弗 Dennis Weaver (id:1019105)

瓦伦汀·德·瓦格斯 Valentin de Vargas (id:1364891)

莫特·米尔斯 Mort Mills (id:1115510)

维克托·米兰 Victor Millan (id:1118387)

拉洛·里奥斯 Lalo Rios (id:1144868)

米迦勒·萨金特 Michael Sargent (id:1367343)

菲尔·哈维 Phil Harvey (id:1367344)

乔伊·兰辛 Joi Lansing (id:1000629)

玛琳·黛德丽 Marlene Dietrich (id:1013957)

Phil Harvey Phil Harvey (id:1286183)

约瑟夫·科顿 Joseph Cotten (id:1055438)

亨利·曼西尼 Henry Mancini (id:1002849)

约翰·P·奥斯汀 John P. Austin (id:1277589)

马克·弗伦德 Mark Freund (id:1284190)

◎标 签 美国 / 犯罪 / 悬疑 / 1958 / 黑色 / 黑白 / 经典 / 惊悚

◎简 介

缉毒官员Newlyweds Miguel "Mike" Vargas(查尔登·海斯顿 Charlton Heston 饰)和他的妻子Susie(珍妮特·利 Janet Leigh 饰)来到了美国和墨西哥的边界。马路上发生了一起汽车爆炸事件,Vargas认为这起案件跟毒贩子有关,遂和当地的警察们一起展开了调查。Hank Quinlan(奥逊·威尔斯 Orson Welles 饰)是警察队长,在当地名声甚响。当地警方把嫌疑集中在一个叫Sanchez的人身上,Vargas却在Sanchez的家中发现了证明他不是犯人的证据。然而Quinlan执意认为Sanchez就是犯人。Vargas研究了以前Quinlan办过的案件,对这个赫赫有名的警察队长产生了不少疑问。而Vargas的妻子Susie在旅馆里却被一帮人所绑架并陷害,Vargas怀疑这一切的背后都是Qui...

  1. ##### MediaInfo ######

  2. General

  3. Unique ID : 91646518982474355718859979340050654431 (0x44F27A3ECC43D0EE99F5AF72023CE4DF)

  4. Complete name : [email protected].mkv

  5. Format : Matroska

  6. Format version : Version 4

  7. File size : 2.99 GiB

  8. Duration : 1 h 47 min

  9. Overall bit rate : 4 000 kb/s

  10. Encoded date : UTC 2021-10-05 10:08:39

  11. Writing application : mkvmerge v56.1.0 ('My Friend') 64-bit

  12. Writing library : libebml v1.4.2 + libmatroska v1.6.4


  13. Video

  14. ID : 1

  15. Format : AVC

  16. Format/Info : Advanced Video Codec

  17. Format profile : [email protected]

  18. Format settings : CABAC / 1 Ref Frames

  19. Format settings, CABAC : Yes

  20. Format settings, Reference frames : 1 frame

  21. Format settings, GOP : M=1, N=60

  22. Codec ID : V_MPEG4/ISO/AVC

  23. Duration : 1 h 47 min

  24. Bit rate mode : Constant

  25. Bit rate : 4 000 kb/s

  26. Width : 1 920 pixels

  27. Height : 1 080 pixels

  28. Display aspect ratio : 16:9

  29. Frame rate mode : Constant

  30. Frame rate : 29.970 (30000/1001/53354) FPS

  31. Color space : YUV

  32. Chroma subsampling : 4:2:0

  33. Bit depth : 8 bits

  34. Scan type : Progressive

  35. Bits/(Pixel*Frame) : 0.064

  36. Stream size : 2.90 GiB (97%)

  37. Language : English

  38. Default : Yes

  39. Forced : No


  40. Audio

  41. ID : 2

  42. Format : AAC LC

  43. Format/Info : Advanced Audio Codec Low Complexity

  44. Codec ID : A_AAC-2

  45. Duration : 1 h 47 min

  46. Bit rate : 125 kb/s

  47. Channel(s) : 2 channels

  48. Channel layout : L R

  49. Sampling rate : 48.0 kHz

  50. Frame rate : 46.875 FPS (1024 SPF)

  51. Compression mode : Lossy

  52. Stream size : 96.1 MiB (3%)

  53. Title : English

  54. Language : English

  55. Default : Yes

  56. Forced : No


  57. Text #1

  58. ID : 3

  59. Format : UTF-8

  60. Codec ID : S_TEXT/UTF8

  61. Codec ID/Info : UTF-8 Plain Text

  62. Duration : 1 h 47 min

  63. Bit rate : 65 b/s

  64. Count of elements : 1584

  65. Stream size : 51.3 KiB (0%)

  66. Title : Chinese Simplified

  67. Language : Chinese

  68. Default : Yes

  69. Forced : No


  70. Text #2

  71. ID : 4

  72. Format : UTF-8

  73. Codec ID : S_TEXT/UTF8

  74. Codec ID/Info : UTF-8 Plain Text

  75. Duration : 1 h 47 min

  76. Bit rate : 65 b/s

  77. Count of elements : 1584

  78. Stream size : 51.3 KiB (0%)

  79. Title : Chinese Traditional

  80. Language : Chinese

  81. Default : No

  82. Forced : No




复制代码



文件下载


除非特别注明,本文『历劫佳人[中文字幕].Touch.of.Evil.1958.1080p.FriDay.WEB-DL.H264.AAC 2.99GB』来源于互联网机器人自动抓取,非本站原创。 浮游电影网不对本文拥有版权,如有侵犯,请联系邮箱:fuyouu#yandex.com[#换成@]投诉。我们会在15个工作日内删除。 但烦请转载时请标明出处:“本文转载于『浮游电影网』,原文地址:https://www.fuyouu.com/14768.html

评论吧骚年!

发表你的见解   

昵称*

E-mail*(建议输入,以便收到博主回复的提示邮件)

验证码*

您可以使用eMule或eMule Mod(Windows)、aMule(Win、Linux、Mac)等软件下载eD2k链接。。
eMule收藏集(.emulecollection)文件是您选中的所有链接的列表文件。eMule可以直接下载它们。
按住SHIFT键选择可以选中多个选择框。
可用文件名和大小选择器来选择文件。
文件名选择器帮您根据文件名称或后缀来选择文件。不分大小写。
符号使用:
和:空格( )、+
不包含:-
或:|
转义:一对英文引号("");
匹配开头:^
匹配结尾:$
例如:
选中所有名称中包含有“eMule”或“0.49c”字眼,但不包含有“exe”字眼的:emule|0.49c -exe
选中所有名称的开头是“eMule”,结尾是“0.49c”的:^emule 0.49c$
选中所有名称中带有“eMule 0.49c”的(必须是“eMule 0.49c”,中间没有别的字符,不能是“eMule fake 0.49c”),需要转义:"emule 0.49c"
大小选择器帮您根据文件大小选择文件。