当前位置: 首页 >> 港台电影 >> 我这样过了一生[国语配音/中文字幕].Kuei-mei.a.Woman.1985.1080p.BluRay.x265.10bit.FLAC.2.0 6.16GB >> 正文

我这样过了一生[国语配音/中文字幕].Kuei-mei.a.Woman.1985.1080p.BluRay.x265.10bit.FLAC.2.0 6.16GB

2021年10月06日 20:09:26     电影发布:来源于网络     电影分类:港台电影     评论(0)    

我这样过了一生[国语配音/中文字幕].Kuei mei.a.Woman.1985.1080p.BluRay.x265.10bit.FLAC.2.0 6.16GB 家庭片 剧情片 港台电影  第1张

◎译 名 我这样过了一生 / Kuei-mei, a Woman

◎片 名 我這樣過了一生

◎年 代 1985

◎产 地 中国台湾

◎类 别 剧情 / 家庭

◎语 言 汉语普通话

◎上映日期 1985-10-09(中国台湾)

◎IMDb链接 https://www.imdb.com/title/tt0092231/

◎豆瓣评分 8.4/10 (5164人评价)

◎豆瓣链接 https://movie.douban.com/subject/1302637/

◎片 长 120分钟

◎导 演 张毅 Yi Chang (id:1078270)

◎编 剧 张毅 Yi Chang (id:1078270)

萧飒 Sa Hsiao (id:1312625)

◎演 员 杨惠姗 Loretta H. Yang (id:1166980)

李立群 Lichun Lee (id:1274438)

刘明 Ming Liu (id:1348815)

文英 Wen Ying (id:1300694)

英英 Ying Ying (id:1309014)

丁也恬 Elten Ting (id:1329905)

吴敏 Min Wu (id:1366733)

邵罗辉 Luo Hui Shaw (id:1184195)

胡翔评 Hsiang-Ping Hu (id:1373729)

罗条慧 Laula Luo (id:1390794)

庹宗康 Tsuong Kang To (id:1314271)

罗文诚 Wen-cheng Lo (id:1375971)

徐国良 Kuo-Liang Hsu (id:1339929)

姚敏 Min Yao (id:1044543)

张弘毅 Hung-Yi Chang (id:1377236)

张弘毅 Hong-Yee Chang (id:1333814)

李亚东 Ya Tung Li (id:1414064)

汪晋臣 Wang Chin-Chen (id:1377695)

古金田 Chin-tien Ku (id:1377261)

王侠军 Hsia-Chun Wang (id:1355354)

杜笃之 Du-Che Tu (id:1275159)

杨布新 Ta-ching Yang (id:1331187)

◎标 签 台湾 / 女性 / 台湾电影 / 家庭 / 杨惠姗 / 文艺 / 张毅 / 剧情

◎简 介

桂美(杨惠姗)孤身从南京来到台湾寻找未婚夫未果,暂住表姐家中,却被当下等佣人对待,为摆脱寄人篱下的生活,她委身下嫁遭妻子遗弃的中年男人侯永年(李立群),成为三个孩子的继母,可是因为侯永年的嗜赌如命兼外养女人,令她犹如刚出狼窝又入虎穴。

生下孩子后,桂美为了生计同侯永年远赴日本替人帮佣,又因机缘在当地一家中国餐馆学得一手好厨艺后返回台湾,独立开了“霞飞之家”餐厅,可是在她勤俭持家之时侯永年却故态复萌,而更让她觉寒心的,是长大成人各有成就的子女以及媳婿的自私与无情。

◎获奖情况 (共6项)

第22届台北金马影展 (1985)

金马奖 最佳剧情片

金马奖 最佳导演

└──张毅 (id:1078270)

金马奖 最佳女主角

└──杨惠姗 (id:1166980)

金马奖 最佳改编剧本

金马奖 最佳美术设计(提名)

金马奖 最佳造型设计(提名)

└──王侠军 (id:1355354)

  1. ##### MediaInfo ######

  2. General

  3. Unique ID : 58149489634566852423160680325527912806 (0x2BBF2F30800EF140765C3A68E6384166)

  4. Complete name : Wo.zhe.yang.guo.le.yi.sheng.AKA.Kuei-mei.a.Woman.1985.1080p.Bluray.x265.10bit.FLAC.2.0.mkv

  5. Format : Matroska

  6. Format version : Version 4

  7. File size : 6.16 GiB

  8. Duration : 2 h 1 min

  9. Overall bit rate mode : Variable

  10. Overall bit rate : 7 264 kb/s

  11. Movie name : Kuei-mei.a.Woman.1985

  12. Encoded date : UTC 2021-10-04 13:45:35

  13. Writing application : mkvmerge v61.0.0 ('So') 64-bit

  14. Writing library : libebml v1.4.2 + libmatroska v1.6.4


  15. Video

  16. ID : 1

  17. Format : HEVC

  18. Format/Info : High Efficiency Video Coding

  19. Format profile : Main [email protected]@Main

  20. Codec ID : V_MPEGH/ISO/HEVC

  21. Duration : 2 h 1 min

  22. Bit rate : 6 899 kb/s

  23. Width : 1 920 pixels

  24. Height : 1 040 pixels

  25. Display aspect ratio : 1.85:1

  26. Frame rate mode : Constant

  27. Frame rate : 24.000 FPS

  28. Color space : YUV

  29. Chroma subsampling : 4:2:0

  30. Bit depth : 10 bits

  31. Bits/(Pixel*Frame) : 0.144

  32. Stream size : 5.85 GiB (95%)

  33. Writing library : x265 3.5+2-g2b25c9ba0+45:[Windows][GCC 10.2.0][64 bit] Yuuki 10bit+8bit+12bit

  34. Encoding settings : rc=crf / crf=19.5000 / qcomp=0.70 / qpstep=4 / stats-write=0 / stats-read=0 / no-lossless / no-cu-lossless / aq-mode=3 / aq-strength=0.90 / cbqpoffs=0 / crqpoffs=0 / ipratio=1.40 / pbratio=1.30 / psy-rd=2.00 / psy-rdoq=0.00 / deblock=0:0 / ref=6 / limit-refs=1 / no-limit-modes / bframes=8 / b-adapt=2 / bframe-bias=0 / b-pyramid / b-intra / weightp / weightb / min-keyint=24 / max-keyint=240 / rc-lookahead=24 / gop-lookahead=0 / NTMzNTQ=uuDQuD2mJt9fsCf / scenecut=40 / hist-scenecut=0 / radl=0 / max-cu-size=64 / min-cu-size=8 / me=3 / subme=7 / merange=48 / rdoq-level=0 / rd=4 / rdpenalty=0 / dynamic-rd=0.00 / no-rd-refine / ----- / cutree / sao / no-rect / no-amp / no-open-gop / wpp / no-pmode / no-pme / no-psnr / no-ssim / nr-intra=0 / nr-inter=0 / no-constrained-intra / no-strong-intra-smoothing / max-tu-size=32 / tu-inter-depth=1 / tu-intra-depth=1 / limit-tu=0 / qg-size=32 / qpmax=69 / qpmin=0 / ----- / cpuid=533541049583 / frame-threads=5 / numa-pools=+ / log-level=2 / input-csp=1 / input-res=1920x1040 / interlace=0 / level-idc=0 / high-tier=1 / uhd-bd=0 / no-allow-non-conformance / no-repeat-headers / aud / no-hrd / info / hash=0 / no-temporal-layers / lookahead-slices=0 / no-splice / no-intra-refresh / no-ssim-rd / signhide / no-tskip / max-merge=3 / temporal-mvp / no-frame-dup / no-hme / no-analyze-src-pics / no-sao-non-deblock / selective-sao=4 / early-skip / rskip / no-fast-intra / no-tskip-fast / no-splitrd-skip / zone-count=0 / no-strict-cbr / no-rc-grain / no-const-vbv / sar=0 / overscan=0 / videoformat=5 / range=0 / colorprim=2 / transfer=2 / colormatrix=2 / chromaloc=0 / display-window=0 / cll=0,0 / min-luma=0 / max-luma=1023 / log2-max-poc-lsb=8 / vui-timing-info / vui-hrd-info / slices=1 / no-opt-qp-pps / no-opt-ref-list-length-pps / no-multi-pass-opt-rps / scenecut-bias=0.05 / hist-threshold=0.03 / no-opt-cu-delta-qp / no-aq-motion / no-hdr10 / no-hdr10-opt / no-dhdr10-opt / no-idr-recovery-sei / analysis-reuse-level=0 / analysis-save-reuse-level=0 / analysis-load-reuse-level=0 / scale-factor=0 / refine-intra=0 / refine-inter=0 / refine-mv=1 / refine-ctu-distortion=0 / no-limit-sao / ctu-info=0 / no-lowpass-dct / refine-analysis-type=0 / copy-pic=1 / max-ausize-factor=1.0 / no-dynamic-refine / no-single-sei / no-hevc-aq / no-svt / no-field / qp-adaptation-range=1.00 / scenecut-aware-qp=0conformance-window-offsets / right=0 / bottom=0 / NTMzNTQ= / decoder-max-rate=0 / no-vbv-live-multi-pass

  35. Language : English

  36. Default : Yes

  37. Forced : No


  38. Audio

  39. ID : 2

  40. Format : FLAC

  41. Format/Info : Free Lossless Audio Codec

  42. Codec ID : A_FLAC

  43. Duration : 2 h 1 min

  44. Bit rate mode : Variable

  45. Bit rate : 325 kb/s

  46. Channel(s) : 2 channels

  47. Channel layout : L R

  48. Sampling rate : 48.0 kHz

  49. Frame rate : 11.719 FPS (4096 SPF)

  50. Bit depth : 16 bits

  51. Compression mode : Lossless

  52. Stream size : 282 MiB (4%)

  53. Title : Mandarin

  54. Writing library : libFLAC 1.2.1 (UTC 2007-09-17)

  55. Default : Yes

  56. Forced : No


  57. Text #1

  58. ID : 3

  59. ID in the original source medium : 4608 (0x1200)

  60. Format : PGS

  61. Muxing mode : zlib

  62. Codec ID : S_HDMV/PGS

  63. Codec ID/Info : Picture based subtitle format used on BDs/HD-DVDs

  64. Duration : 1 h 58 min

  65. Bit rate : 31.3 kb/s

  66. Count of elements : 2252

  67. Stream size : 26.4 MiB (0%)

  68. Title : cht

  69. Language : Chinese

  70. Default : Yes

  71. Forced : No

  72. Original source medium : Blu-ray


  73. Text #2

  74. ID : 4

  75. ID in the original source medium : 4609 (0x1201)

  76. Format : PGS

  77. Muxing mode : zlib

  78. Codec ID : S_HDMV/PGS

  79. Codec ID/Info : Picture based subtitle format used on BDs/HD-DVDs

  80. Duration : 1 h 58 min

  81. Bit rate : 36.4 kb/s

  82. Count of elements : 2252

  83. Stream size : 30.8 MiB (0%)

  84. Language : English

  85. Default : Yes

  86. Forced : No

  87. Original source medium : Blu-ray


  88. Menu

  89. 00:00:00.000 : 第 01 章

  90. 00:30:07.458 : 第 02 章

  91. 00:45:55.833 : 第 03 章

  92. 01:01:22.375 : 第 04 章

  93. 01:14:11.625 : 第 05 章

  94. 01:30:19.000 : 第 06 章




复制代码



文件下载


除非特别注明,本文『我这样过了一生[国语配音/中文字幕].Kuei-mei.a.Woman.1985.1080p.BluRay.x265.10bit.FLAC.2.0 6.16GB』来源于互联网机器人自动抓取,非本站原创。 浮游电影网不对本文拥有版权,如有侵犯,请联系邮箱:fuyouu#yandex.com[#换成@]投诉。我们会在15个工作日内删除。 但烦请转载时请标明出处:“本文转载于『浮游电影网』,原文地址:https://www.fuyouu.com/14766.html

评论吧骚年!

发表你的见解   

昵称*

E-mail*(建议输入,以便收到博主回复的提示邮件)

验证码*

您可以使用eMule或eMule Mod(Windows)、aMule(Win、Linux、Mac)等软件下载eD2k链接。。
eMule收藏集(.emulecollection)文件是您选中的所有链接的列表文件。eMule可以直接下载它们。
按住SHIFT键选择可以选中多个选择框。
可用文件名和大小选择器来选择文件。
文件名选择器帮您根据文件名称或后缀来选择文件。不分大小写。
符号使用:
和:空格( )、+
不包含:-
或:|
转义:一对英文引号("");
匹配开头:^
匹配结尾:$
例如:
选中所有名称中包含有“eMule”或“0.49c”字眼,但不包含有“exe”字眼的:emule|0.49c -exe
选中所有名称的开头是“eMule”,结尾是“0.49c”的:^emule 0.49c$
选中所有名称中带有“eMule 0.49c”的(必须是“eMule 0.49c”,中间没有别的字符,不能是“eMule fake 0.49c”),需要转义:"emule 0.49c"
大小选择器帮您根据文件大小选择文件。