当前位置: 首页 >> 港台电影 >> 客途秋恨[国粤语音轨].Song.of.the.Exile.1990.WEB-DL.1080P.H265.AAC 2.15GB >> 正文

客途秋恨[国粤语音轨].Song.of.the.Exile.1990.WEB-DL.1080P.H265.AAC 2.15GB

2021年10月06日 20:05:58     电影发布:来源于网络     电影分类:港台电影     评论(0)    

客途秋恨[国粤语音轨].Song.of.the.Exile.1990.WEB DL.1080P.H265.AAC 2.15GB 家庭片 剧情片 港台电影  第1张

◎译 名 客途秋恨 / 枪火中的女人 / Song of the Exile

◎年 代 1990

◎产 地 中国香港 / 中国台湾

◎类 别 剧情 / 家庭

◎语 言 英语 / 汉语普通话 / 粤语 / 日语

◎上映日期 1990-04-27(中国香港)

◎IMDb链接 https://www.imdb.com/title/tt0099927/

◎豆瓣评分 8.5/10 (15358人评价)

◎豆瓣链接 https://movie.douban.com/subject/1308304/

◎片 长 96分钟

◎导 演 许鞍华 Ann Hui (id:1053570)

◎演 员 陆小芬 Hsiao-fen Lu (id:1117057)

张曼玉 Maggie Cheung (id:1274231)

李子雄 Waise Lee (id:1037662)

田丰 Feng Tien (id:1019621)

萧湘 Hsiao Hsiang (id:1402943)

蔡康永 Kevin Tsai (id:1273400)

林登飞 Dengfei Lin (id:1440158)

胡金铨 King Hu (id:1048426)

陈扬 Yang Chen (id:1351063)

曾淑勤 Shu-chinTseng (id:1358252)

黄义顺 Yee Shun Wong (id:1301206)

奚仲文 Chung-Man Hai (id:1275027)

敬海林 Hoi Lam Ging (id:1345587)

赵琦彬 Chi-pin Chao (id:1049367)

杜笃之 Du-Che Tu (id:1275159)

◎标 签 许鞍华 / 张曼玉 / 香港 / 香港电影 / 吴念真 / 1990 / 許鞍華 / 亲情

◎简 介

晓恩(张曼玉 饰)留学归来参加妹妹的婚礼,期间发觉与母亲葵子(陆小芬 饰)的隔阂与矛盾只增不减。直到陪母亲回日本探亲时,她才真正开始了解自己的母亲。原来在抗日期间到满洲投靠哥哥的母亲,结识了当时身为军官的父亲(李子雄 饰),并与其结婚,战后决定随丈夫一起搬到澳门生活。因 生活习惯和文化等各方面的差异,令母亲与公婆同女儿之间的隔阂与误解不断。然而在母女俩终于取得了沟通与谅解之时,却从大陆传来了从小带大晓恩的祖父中风不良于行的消息, 向来和他们不和的母亲却要求忙拍戏的女儿一定要去......

◎获奖情况 (共6项)

第27届台北金马影展 (1990)

金马奖 最佳剧情片(提名)

金马奖 最佳原著剧本

金马奖 最佳造型设计(提名)

└──陈顾方 (id:1280438)

第10届香港电影金像奖 (1991)

最佳电影(提名)

最佳导演(提名)

└──许鞍华 (id:1053570)

最佳编剧(提名)

  1. ##### MediaInfo ######

  2. General

  3. Unique ID : 216954662067072741051148316129859125131 (0xA337F2B1C32C58E9170D378F38C2BF8B)

  4. Complete name : Song of the Exile 1990 WEB-DL 1080P H265 [email protected]

  5. Format : Matroska

  6. Format version : Version 4

  7. File size : 2.14 GiB

  8. Duration : 1 h 34 min

  9. Overall bit rate : 3 258 kb/s

  10. Encoded date : UTC 2020-03-27 13:20:17

  11. Writing application : mkvmerge v19.0.0 ('Brave Captain') 64-bit

  12. Writing library : libebml v1.3.5 + libmatroska v1.4.8


  13. Video

  14. ID : 1

  15. Format : HEVC

  16. Format/Info : High Efficiency Video Coding

  17. Format profile : [email protected]@Main

  18. Codec ID : V_MPEGH/ISO/HEVC

  19. Duration : 1 h 34 min

  20. Bit rate : 2 999 kb/s

  21. Width : 1 920 pixels

  22. Height : 1 080 pixels

  23. Display aspect ratio : 16:9

  24. Frame rate mode : Constant

  25. Frame rate : 25.000 FPS

  26. Color space : YUV

  27. Chroma subsampling : 4:2:0

  28. Bit depth : 8 bits

  29. Bits/(Pixel*Frame) : 0.058

  30. Stream size : 1.97 GiB (92%)

  31. Default : Yes

  32. Forced : No

  33. Color range : Limited

  34. Color primaries : BT.709

  35. Transfer characteristics : BT.709

  36. Matrix coefficients : BT.709


  37. Audio #1

  38. ID : 2

  39. Format : AAC LC

  40. Format/Info : Advanced Audio Codec Low Complexity

  41. Codec ID : A_AAC-2

  42. Duration : 1 h 34 min

  43. Bit rate : 128 kb/s

  44. Channel(s) : 2 channels

  45. Channel layout : L R

  46. Sampling rate : 48.0 kHz

  47. Frame rate : 46.875 FPS (1024 SPF)

  48. Compression mode : Lossy

  49. Stream size : 86.2 MiB (4%)

  50. Title : 粤语

  51. Default : Yes

  52. Forced : No


  53. Audio #2

  54. ID : 3

  55. Format : AAC LC

  56. Format/Info : Advanced Audio Codec Low Complexity

  57. Codec ID : A_AAC-2

  58. Duration : 1 h 34 min

  59. Bit rate : 128 kb/s

  60. Channel(s) : 2 channels

  61. Channel layout : L R

  62. Sampling rate : 48.0 kHz

  63. Frame rate : 46.875 FPS (1024 SPF)

  64. Compression mode : Lossy

  65. Stream size : 86.2 MiB (4%)

  66. Title : 国语

  67. Default : No

  68. Forced : No




复制代码



文件下载


除非特别注明,本文『客途秋恨[国粤语音轨].Song.of.the.Exile.1990.WEB-DL.1080P.H265.AAC 2.15GB』来源于互联网机器人自动抓取,非本站原创。 浮游电影网不对本文拥有版权,如有侵犯,请联系邮箱:fuyouu#yandex.com[#换成@]投诉。我们会在15个工作日内删除。 但烦请转载时请标明出处:“本文转载于『浮游电影网』,原文地址:https://www.fuyouu.com/14764.html

评论吧骚年!

发表你的见解   

昵称*

E-mail*(建议输入,以便收到博主回复的提示邮件)

验证码*

您可以使用eMule或eMule Mod(Windows)、aMule(Win、Linux、Mac)等软件下载eD2k链接。。
eMule收藏集(.emulecollection)文件是您选中的所有链接的列表文件。eMule可以直接下载它们。
按住SHIFT键选择可以选中多个选择框。
可用文件名和大小选择器来选择文件。
文件名选择器帮您根据文件名称或后缀来选择文件。不分大小写。
符号使用:
和:空格( )、+
不包含:-
或:|
转义:一对英文引号("");
匹配开头:^
匹配结尾:$
例如:
选中所有名称中包含有“eMule”或“0.49c”字眼,但不包含有“exe”字眼的:emule|0.49c -exe
选中所有名称的开头是“eMule”,结尾是“0.49c”的:^emule 0.49c$
选中所有名称中带有“eMule 0.49c”的(必须是“eMule 0.49c”,中间没有别的字符,不能是“eMule fake 0.49c”),需要转义:"emule 0.49c"
大小选择器帮您根据文件大小选择文件。