当前位置: 首页 >> 欧美电影 >> 罪人[中文字幕].The.Guilty.2021.1080p.NF.WEB-DL.x264.DDP5.1.Atmos 4.84GB >> 正文

罪人[中文字幕].The.Guilty.2021.1080p.NF.WEB-DL.x264.DDP5.1.Atmos 4.84GB

2021年10月06日 20:02:26     电影发布:来源于网络     电影分类:欧美电影     评论(0)    

罪人[中文字幕].The.Guilty.2021.1080p.NF.WEB DL.x264.DDP5.1.Atmos 4.84GB 犯罪片 惊悚片 剧情片 欧美电影  第1张

◎译 名 罪人 / 罪人美国版 / 接线追缉(港 / 台)

◎片 名 The Guilty

◎年 代 2021

◎产 地 美国

◎类 别 剧情 / 惊悚 / 犯罪

◎语 言 英语

◎上映日期 2021-09-11(多伦多电影节) / 2021-10-01(美国网络)

◎IMDb链接 https://www.imdb.com/title/tt9421570/

◎豆瓣评分 6.5/10 (1505人评价)

◎豆瓣链接 https://movie.douban.com/subject/30400539/

◎片 长 90分钟

◎导 演 安东尼·福奎阿 Antoine Fuqua (id:1013907)

◎编 剧 埃米尔·尼加德·阿尔伯森 Emil Nygaard Albertsen (id:1404222)

古斯塔夫·莫勒 Gustav M?ller (id:1389185)

尼克·皮佐拉托 Nic Pizzolatto (id:1338867)

◎演 员 杰克·吉伦哈尔 Jake Gyllenhaal (id:1048002)

伊桑·霍克 Ethan Hawke (id:1018984)

丽莉·吉欧 Riley Keough (id:1237039)

保罗·达诺 Paul Dano (id:1027774)

彼得·萨斯加德 Peter Sarsgaard (id:1031800)

比尔·伯尔 Bill Burr (id:1073692)

艾迪·帕特森 Edi Patterson (id:1371064)

大卫·卡斯塔尼达 David Casta?eda (id:1402431)

克里斯蒂娜·怀道尔 Christina Vidal (id:1040639)

博·纳普 Beau Knapp (id:1342556)

维维恩·莱拉·布莱尔 Vivien Lyra Blair (id:1387931)

阿德里安·马丁斯 Adrian Martinez (id:1351492)

吉莲·珍塞尔 Gillian Zinser (id:1264277)

达明·乔伊·伦道夫 Da'Vine Joy Randolph (id:1365682)

迪伦·兰恩 Dillon Lane (id:1223084)

拜伦·鲍尔斯 Byron Bowers (id:1399798)

T.J.若托罗 T.J. Rotolo (id:1148377)

贝基·吴 Becky Wu (id:1337999)

◎标 签 犯罪 / 杰克·吉伦哈尔 / 美国 / 剧情 / 惊悚 / 2021 / 翻拍 / JakeGyllenhaal

◎简 介

该电影背景设定在 911 紧急呼叫中心的一个早上。呼叫接线员乔·贝勒(吉伦哈尔饰)试图拯救一名危在旦夕的呼叫者,但他很快发现事实并非如此,而面对真相是摆脱困境的唯一办法。

  1. ##### MediaInfo ######

  2. General

  3. Unique ID : 83104397981309990417825868277658096857 (0x3E855329E8FE982C166CF766DEB714D9)

  4. Complete name : [email protected]OM.mkv

  5. Format : Matroska

  6. Format version : Version 4

  7. File size : 4.83 GiB

  8. Duration : 1 h 31 min

  9. Overall bit rate mode : Variable

  10. Overall bit rate : 7 596 kb/s

  11. Encoded date : UTC 2021-10-04 13:07:33

  12. Writing application : mkvmerge v61.0.0 ('So') 64-bit

  13. Writing library : libebml v1.4.2 + libmatroska v1.6.4


  14. Video

  15. ID : 1

  16. Format : AVC

  17. Format/Info : Advanced Video Codec

  18. Format profile : [email protected]

  19. Format settings : CABAC / 4 Ref Frames

  20. Format settings, CABAC : Yes

  21. Format settings, Reference frames : 4 frames

  22. Codec ID : V_MPEG4/ISO/AVC

  23. Duration : 1 h 31 min

  24. Bit rate mode : Variable

  25. Bit rate : 6 059 kb/s

  26. Maximum bit rate : 20.0 Mb/s

  27. Width : 1 920 pixels

  28. Height : 1 080 pixels

  29. Display aspect ratio : 16:9

  30. Frame rate mode : Constant

  31. Frame rate : 23.976 (24000/1001/53354) FPS

  32. Color space : YUV

  33. Chroma subsampling : 4:2:0

  34. Bit depth : 8 bits

  35. Scan type : Progressive

  36. Bits/(Pixel*Frame) : 0.122

  37. Stream size : 3.85 GiB (80%)

  38. Writing library : x264 core 148 r2724 dbe0335

  39. Encoding settings : cabac=1 / ref=4 / deblock=1:0:0 / analyse=0x3:0x111 / me=umh / subme=10 / psy=1 / psy_rd=1.00:0.00 / mixed_ref=1 / me_range=120 / chroma_me=1 / trellis=2 / 8x8dct=1 / cqm=0 / deadzone=21,11 / fast_pskip=1 / chroma_qp_offset=-2 / threads=8 / lookahead_threads=2 / sliced_threads=0 / nr=0 / decimate=1 / interlaced=0 / NTMzNTQ= / bluray_compat=0 / stitchable=1 / constrained_intra=0 / bframes=16 / b_pyramid=2 / b_adapt=2 / b_bias=0 / direct=3 / weightb=1 / open_gop=0 / weightp=2 / keyint=240 / keyint_min=121 / scenecut=0 / intra_refresh=0 / rc_lookahead=240 / rc=crf / mbtree=1 / crf=16.0 / qcomp=0.50 / qpmin=6 / qpmax=51 / qpstep=4 / vbv_maxrate=20000 / vbv_bufsize=25000 / crf_max=0.0 / nal_hrd=vbr / filler=0 / NTMzNTQ=LmsMAP37EqsCpk / ip_ratio=1.40 / aq=1:0.80

  40. Default : Yes

  41. Forced : No


  42. Audio #1

  43. ID : 2

  44. Format : E-AC-3 JOC

  45. Format/Info : Enhanced AC-3 with Joint Object Coding

  46. Commercial name : Dolby Digital Plus with Dolby Atmos

  47. Codec ID : A_EAC3

  48. Duration : 1 h 31 min

  49. Bit rate mode : Constant

  50. Bit rate : 768 kb/s

  51. Channel(s) : 6 channels

  52. Channel layout : L R C LFE Ls Rs

  53. Sampling rate : 48.0 kHz

  54. Frame rate : 31.250 FPS (1536 SPF)

  55. Compression mode : Lossy

  56. Stream size : 500 MiB (10%)

  57. Language : English

  58. Service kind : Complete Main

  59. Default : Yes

  60. Forced : No

  61. Complexity index : 16

  62. Number of dynamic objects : 15

  63. Bed channel count : 1 channel

  64. Bed channel configuration : LFE


  65. Audio #2

  66. ID : 3

  67. Format : E-AC-3

  68. Format/Info : Enhanced AC-3

  69. Commercial name : Dolby Digital Plus

  70. Codec ID : A_EAC3

  71. Duration : 1 h 31 min

  72. Bit rate mode : Constant

  73. Bit rate : 640 kb/s

  74. Channel(s) : 6 channels

  75. Channel layout : L R C LFE Ls Rs

  76. Sampling rate : 48.0 kHz

  77. Frame rate : 31.250 FPS (1536 SPF)

  78. Compression mode : Lossy

  79. Stream size : 417 MiB (8%)

  80. Language : English

  81. Service kind : Complete Main

  82. Default : Yes

  83. Forced : No


  84. Audio #3

  85. ID : 4

  86. Format : E-AC-3

  87. Format/Info : Enhanced AC-3

  88. Commercial name : Dolby Digital Plus

  89. Codec ID : A_EAC3

  90. Duration : 1 h 31 min

  91. Bit rate mode : Constant

  92. Bit rate : 128 kb/s

  93. Channel(s) : 2 channels

  94. Channel layout : L R

  95. Sampling rate : 48.0 kHz

  96. Frame rate : 31.250 FPS (1536 SPF)

  97. Compression mode : Lossy

  98. Stream size : 83.4 MiB (2%)

  99. Language : English

  100. Service kind : Complete Main

  101. Default : Yes

  102. Forced : No


  103. Text #1

  104. ID : 5

  105. Format : UTF-8

  106. Codec ID : S_TEXT/UTF8

  107. Codec ID/Info : UTF-8 Plain Text

  108. Duration : 1 h 28 min

  109. Bit rate : 57 b/s

  110. Count of elements : 1200

  111. Stream size : 37.3 KiB (0%)

  112. Title : 简体中文

  113. Language : Chinese

  114. Default : Yes

  115. Forced : No


  116. Text #2

  117. ID : 6

  118. Format : UTF-8

  119. Codec ID : S_TEXT/UTF8

  120. Codec ID/Info : UTF-8 Plain Text

  121. Duration : 1 h 28 min

  122. Bit rate : 50 b/s

  123. Count of elements : 1217

  124. Stream size : 33.1 KiB (0%)

  125. Title : 繁体中文

  126. Language : Chinese

  127. Default : Yes

  128. Forced : No




复制代码



文件下载


除非特别注明,本文『罪人[中文字幕].The.Guilty.2021.1080p.NF.WEB-DL.x264.DDP5.1.Atmos 4.84GB』来源于互联网机器人自动抓取,非本站原创。 浮游电影网不对本文拥有版权,如有侵犯,请联系邮箱:fuyouu#yandex.com[#换成@]投诉。我们会在15个工作日内删除。 但烦请转载时请标明出处:“本文转载于『浮游电影网』,原文地址:https://www.fuyouu.com/14762.html

评论吧骚年!

发表你的见解   

昵称*

E-mail*(建议输入,以便收到博主回复的提示邮件)

验证码*

您可以使用eMule或eMule Mod(Windows)、aMule(Win、Linux、Mac)等软件下载eD2k链接。。
eMule收藏集(.emulecollection)文件是您选中的所有链接的列表文件。eMule可以直接下载它们。
按住SHIFT键选择可以选中多个选择框。
可用文件名和大小选择器来选择文件。
文件名选择器帮您根据文件名称或后缀来选择文件。不分大小写。
符号使用:
和:空格( )、+
不包含:-
或:|
转义:一对英文引号("");
匹配开头:^
匹配结尾:$
例如:
选中所有名称中包含有“eMule”或“0.49c”字眼,但不包含有“exe”字眼的:emule|0.49c -exe
选中所有名称的开头是“eMule”,结尾是“0.49c”的:^emule 0.49c$
选中所有名称中带有“eMule 0.49c”的(必须是“eMule 0.49c”,中间没有别的字符,不能是“eMule fake 0.49c”),需要转义:"emule 0.49c"
大小选择器帮您根据文件大小选择文件。