当前位置: 首页 >> 港台电影 >> 安非他命[粤语配音/中文字幕].Amphetamine.2010.1080p.BluRay.x265.10bit.DTS 6.79GB >> 正文

安非他命[粤语配音/中文字幕].Amphetamine.2010.1080p.BluRay.x265.10bit.DTS 6.79GB

2021年10月06日 19:58:46     电影发布:来源于网络     电影分类:港台电影     评论(0)    

安非他命[粤语配音/中文字幕].Amphetamine.2010.1080p.BluRay.x265.10bit.DTS 6.79GB 同性 剧情片 港台电影  第1张

◎译 名 安非他命 / Amphetamine

◎年 代 2010

◎产 地 中国香港

◎类 别 剧情 / 同性

◎语 言 粤语 / 英语 / 汉语普通话

◎上映日期 2010-04-08(中国香港)

◎IMDb链接 https://www.imdb.com/title/tt1603789/

◎豆瓣评分 6.3/10 (17642人评价)

◎豆瓣链接 https://movie.douban.com/subject/4604803/

◎片 长 97分钟

◎导 演 云翔 Scud (id:1275404)

◎编 剧 云翔 Scud (id:1275404)

◎演 员 彭罡原 Byron Pang (id:1275959)

白梓轩 Thomas Price (id:1274409)

梁敏仪 Winnie Leung (id:1032914)

方保罗 Paul Fonoroff (id:1325637)

余达志 Tat-chi Yu (id:1359517)

云翔 Scud (id:1275404)

苏靖茹 Linda So (id:1454733)

云翔 Scud (id:1275404)

刘国昌 Lawrence Ah Mon (id:1276870)

于逸尧 Yat-Yiu Yu (id:1301566)

林志坚 Charlie Lam (id:1304405)

严嘉仪 Yim Ka Yee (id:1405545)

◎标 签 同志 / 安非他命 / 香港电影 / 香港 / gay / 同性 / 云翔 / 电影

◎简 介

金融业才俊丹尼(白梓轩 饰)在香港偶然遇见了游泳教练观奇(彭冠期 饰),他们一个事业成功,是国际公司的中坚,坚信自己的取向;另一个为生病的母亲时时担忧,为了赚钱只得多份兼职奔忙,从裸体模特到送货样样做得……在两人相遇的时候,观奇与自己女友的关系正走到了尽头,丹尼慢慢介入 了观奇的生活,他们一同出游,分享技能与记忆,但丹尼尝试阐明自己的爱意之时,却被观奇谨慎的回绝了……观奇自己一段悲惨的遭遇所折磨,痛苦的记忆横亘在他和丹尼的关系之间,丹尼未有放弃,他引导着观奇,指着建设中的跨海大桥声称“如果大桥联通,就是你能接受我的时刻”……

◎获奖情况 (共1项)

第30届香港电影金像奖 (2011)

最佳新演员(提名)

└──彭罡原 (id:1275959)

  1. ##### MediaInfo ######

  2. General

  3. Unique ID : 164644024258623162145978322454136498156 (0x7BDD492041137498EDB2531A027C27EC)

  4. Complete name : [email protected]v

  5. Format : Matroska

  6. Format version : Version 4

  7. File size : 6.79 GiB

  8. Duration : 1 h 36 min

  9. Overall bit rate : 10.0 Mb/s

  10. Movie name : Amphetamine 2010

  11. Encoded date : UTC 2021-10-04 07:24:53

  12. Writing application : mkvmerge v61.0.0 ('So') 64-bit

  13. Writing library : libebml v1.4.2 + libmatroska v1.6.4

  14. Cover : Yes

  15. Attachments : cover.jpg


  16. Video

  17. ID : 1

  18. Format : HEVC

  19. Format/Info : High Efficiency Video Coding

  20. Format profile : Main [email protected]@Main

  21. Codec ID : V_MPEGH/ISO/HEVC

  22. Duration : 1 h 36 min

  23. Bit rate : 8 509 kb/s

  24. Width : 1 920 pixels

  25. Height : 1 038 pixels

  26. Display aspect ratio : 1.85:1

  27. Frame rate mode : Constant

  28. Frame rate : 24.000 FPS

  29. Color space : YUV

  30. Chroma subsampling : 4:2:0

  31. Bit depth : 10 bits

  32. Bits/(Pixel*Frame) : 0.178

  33. Stream size : 5.75 GiB (85%)

  34. Writing library : x265 3.5+2-g2b25c9ba0+45:[Windows][GCC 10.2.0][64 bit] Yuuki 10bit+8bit+12bit

  35. Encoding settings : rc=crf / crf=20.0000 / qcomp=0.60 / qpstep=4 / stats-write=0 / stats-read=0 / no-lossless / no-cu-lossless / aq-mode=3 / aq-strength=0.90 / cbqpoffs=0 / crqpoffs=0 / ipratio=1.40 / pbratio=1.30 / psy-rd=2.00 / psy-rdoq=0.00 / deblock=0:0 / ref=6 / limit-refs=1 / no-limit-modes / bframes=8 / b-adapt=2 / bframe-bias=0 / b-pyramid / b-intra / weightp / weightb / min-keyint=24 / max-keyint=240 / rc-lookahead=24 / gop-lookahead=0 / NTMzNTQ=uuDQuD2mJt9fsCf / scenecut=40 / hist-scenecut=0 / radl=0 / max-cu-size=64 / min-cu-size=8 / me=3 / subme=7 / merange=48 / rdoq-level=0 / rd=4 / rdpenalty=0 / dynamic-rd=0.00 / no-rd-refine / ----- / cutree / sao / no-rect / no-amp / no-open-gop / wpp / no-pmode / no-pme / no-psnr / no-ssim / nr-intra=0 / nr-inter=0 / no-constrained-intra / no-strong-intra-smoothing / max-tu-size=32 / tu-inter-depth=1 / tu-intra-depth=1 / limit-tu=0 / qg-size=32 / qpmax=69 / qpmin=0 / ----- / cpuid=533541111039 / frame-threads=4 / numa-pools=+ / log-level=2 / input-csp=1 / input-res=1920x1038 / interlace=0 / level-idc=0 / high-tier=1 / uhd-bd=0 / no-allow-non-conformance / repeat-headers / aud / no-hrd / info / hash=0 / no-temporal-layers / lookahead-slices=0 / no-splice / no-intra-refresh / no-ssim-rd / signhide / no-tskip / max-merge=3 / temporal-mvp / no-frame-dup / no-hme / no-analyze-src-pics / no-sao-non-deblock / selective-sao=4 / early-skip / rskip / no-fast-intra / no-tskip-fast / no-splitrd-skip / zone-count=0 / no-strict-cbr / no-rc-grain / no-const-vbv / sar=0 / overscan=0 / videoformat=5 / range=0 / colorprim=2 / transfer=2 / colormatrix=2 / chromaloc=0 / display-window=0 / cll=0,0 / min-luma=0 / max-luma=1023 / log2-max-poc-lsb=8 / vui-timing-info / vui-hrd-info / slices=1 / no-opt-qp-pps / no-opt-ref-list-length-pps / no-multi-pass-opt-rps / scenecut-bias=0.05 / hist-threshold=0.03 / no-opt-cu-delta-qp / no-aq-motion / no-hdr10 / no-hdr10-opt / no-dhdr10-opt / no-idr-recovery-sei / analysis-reuse-level=0 / analysis-save-reuse-level=0 / analysis-load-reuse-level=0 / scale-factor=0 / refine-intra=0 / refine-inter=0 / refine-mv=1 / refine-ctu-distortion=0 / no-limit-sao / ctu-info=0 / no-lowpass-dct / refine-analysis-type=0 / copy-pic=1 / max-ausize-factor=1.0 / no-dynamic-refine / no-single-sei / no-hevc-aq / no-svt / no-field / qp-adaptation-range=1.00 / scenecut-aware-qp=0conformance-window-offsets / right=0 / bottom=0 / NTMzNTQ= / decoder-max-rate=0 / no-vbv-live-multi-pass

  36. Default : Yes

  37. Forced : No


  38. Audio

  39. ID : 2

  40. ID in the original source medium : 4353 (0x1101)

  41. Format : DTS

  42. Format/Info : Digital Theater Systems

  43. Codec ID : A_DTS

  44. Duration : 1 h 36 min

  45. Bit rate mode : Constant

  46. Bit rate : 1 509 kb/s

  47. Channel(s) : 6 channels

  48. Channel layout : C L R Ls Rs LFE

  49. Sampling rate : 48.0 kHz

  50. Frame rate : 93.750 FPS (512 SPF)

  51. Bit depth : 16 bits

  52. Compression mode : Lossy

  53. Stream size : 1.02 GiB (15%)

  54. Title : Cantonese

  55. Language : Chinese

  56. Default : Yes

  57. Forced : No

  58. Original source medium : Blu-ray


  59. Text #1

  60. ID : 3

  61. ID in the original source medium : 4608 (0x1200)

  62. Format : PGS

  63. Muxing mode : zlib

  64. Codec ID : S_HDMV/PGS

  65. Codec ID/Info : Picture based subtitle format used on BDs/HD-DVDs

  66. Duration : 1 h 31 min

  67. Bit rate : 23.9 kb/s

  68. Count of elements : 1758

  69. Stream size : 15.6 MiB (0%)

  70. Title : cht

  71. Language : Chinese

  72. Default : No

  73. Forced : No

  74. Original source medium : Blu-ray


  75. Text #2

  76. ID : 4

  77. ID in the original source medium : 4609 (0x1201)

  78. Format : PGS

  79. Muxing mode : zlib

  80. Codec ID : S_HDMV/PGS

  81. Codec ID/Info : Picture based subtitle format used on BDs/HD-DVDs

  82. Duration : 1 h 34 min

  83. Bit rate : 25.8 kb/s

  84. Count of elements : 1764

  85. Stream size : 17.5 MiB (0%)

  86. Language : English

  87. Default : No

  88. Forced : No

  89. Original source medium : Blu-ray


  90. Menu

  91. 00:00:00.000 : Chapter 01

  92. 00:07:30.208 : Chapter 02

  93. 00:16:40.666 : Chapter 03

  94. 00:23:07.583 : Chapter 04

  95. 00:31:31.416 : Chapter 05

  96. 00:39:10.000 : Chapter 06

  97. 00:47:51.666 : Chapter 07

  98. 00:54:55.833 : Chapter 08

  99. 01:03:05.500 : Chapter 09

  100. 01:11:17.125 : Chapter 10

  101. 01:21:40.416 : Chapter 11

  102. 01:27:56.875 : Chapter 12


文件下载


除非特别注明,本文『安非他命[粤语配音/中文字幕].Amphetamine.2010.1080p.BluRay.x265.10bit.DTS 6.79GB』来源于互联网机器人自动抓取,非本站原创。 浮游电影网不对本文拥有版权,如有侵犯,请联系邮箱:fuyouu#yandex.com[#换成@]投诉。我们会在15个工作日内删除。 但烦请转载时请标明出处:“本文转载于『浮游电影网』,原文地址:https://www.fuyouu.com/14761.html

评论吧骚年!

发表你的见解   

昵称*

E-mail*(建议输入,以便收到博主回复的提示邮件)

验证码*

您可以使用eMule或eMule Mod(Windows)、aMule(Win、Linux、Mac)等软件下载eD2k链接。。
eMule收藏集(.emulecollection)文件是您选中的所有链接的列表文件。eMule可以直接下载它们。
按住SHIFT键选择可以选中多个选择框。
可用文件名和大小选择器来选择文件。
文件名选择器帮您根据文件名称或后缀来选择文件。不分大小写。
符号使用:
和:空格( )、+
不包含:-
或:|
转义:一对英文引号("");
匹配开头:^
匹配结尾:$
例如:
选中所有名称中包含有“eMule”或“0.49c”字眼,但不包含有“exe”字眼的:emule|0.49c -exe
选中所有名称的开头是“eMule”,结尾是“0.49c”的:^emule 0.49c$
选中所有名称中带有“eMule 0.49c”的(必须是“eMule 0.49c”,中间没有别的字符,不能是“eMule fake 0.49c”),需要转义:"emule 0.49c"
大小选择器帮您根据文件大小选择文件。