当前位置: 首页 >> 港台电影 >> 全城戒备[国粤语配音/中文字幕].City.Under.Siege.2010.1080p.BluRay.x265.10bit.DTS.2Audio 6.97GB >> 正文

全城戒备[国粤语配音/中文字幕].City.Under.Siege.2010.1080p.BluRay.x265.10bit.DTS.2Audio 6.97GB

2021年10月06日 19:57:26     电影发布:来源于网络     电影分类:港台电影     评论(0)    

全城戒备[国粤语配音/中文字幕].City.Under.Siege.2010.1080p.BluRay.x265.10bit.DTS.2Audio 6.97GB 科幻片 惊悚片 动作片 港台电影  第1张

◎译 名 全城戒备 / City Under Siege

◎片 名 全城戒備

◎年 代 2010

◎产 地 中国香港 / 中国大陆

◎类 别 动作 / 科幻 / 惊悚

◎语 言 粤语 / 汉语普通话

◎上映日期 2010-08-06(中国大陆)

◎IMDb链接 https://www.imdb.com/title/tt1691832/

◎豆瓣评分 4.6/10 (42981人评价)

◎豆瓣链接 https://movie.douban.com/subject/3874981/

◎片 长 110 分钟(香港)

◎导 演 陈木胜 Benny Chan (id:1274293)

◎编 剧 陈木胜 Benny Chan (id:1274293)

凌志民 Chi-man Ling (id:1336134)

◎演 员 郭富城 Aaron Kwok (id:1041390)

舒淇 Qi Shu (id:1138320)

邹兆龙 Collin Chou (id:1022821)

张静初 Jingchu Zhang (id:1016668)

吴京 Jing Wu (id:1000525)

张宝雯 Baowen Zhang (id:1322759)

铁男 Nan Tie (id:1390434)

元华 Wah Yuen (id:1050240)

周秀娜 Chrissie Chaw (id:1313563)

尹子维 Terence Yin (id:1045571)

赵俊承 Gary Chiu Tsun Shing (id:1428419)

方志驹 Vernon Fong (id:1378868)

陈木胜 Benny Chan (id:1274293)

陈国雄 Kwok Hung Chan (id:1309658)

潘耀明 Anthony Pun (id:1307639)

陈木胜 Benny Chan (id:1274293)

庄国荣 Kwok Wing Cheong (id:1280604)

张叔平 William Chang (id:1274369)

黄宏达 Victor Wong (id:1307421)

刘俐 Kibby Lau (id:1333238)

◎标 签 动作 / 香港电影 / 香港 / 郭富城 / 舒淇 / 陈木胜 / 吴京 / 张静初

◎简 介

奇艺坊马戏团在马来西亚巡回演出,团员们偶然听说二战时期日本人留下的宝藏的消息。在飞刀高手张大初(邹兆龙 饰)的带领下,他们一行五人杀害寻宝者,一心想成为飞刀行家的小人物桑尼(郭富城 饰)尾随前来,亲眼目睹大初一众行凶全过程。他被迫随众人下洞,却无意开启日军留下的生化武器。经过一番难以想象的艰苦磨难,桑尼侥幸逃生,却变成奇怪的摸样。

与此同时,香港接连发生数起抢劫案。行凶者赤手空拳,手段残忍,他们正是受毒气感染发生变异的张大初等人。这一连串事件震惊全港,警方从内地请来个中高手孙皓(吴京 饰)与程秀华(张静初 饰)协助调查。而桑尼也摇身一变成为与邪恶对抗的正义使者……

◎获奖情况 (共1项)

第30届香港电影金像奖 (2011)

最佳女配角(提名)

└──张静初 (id:1016668)

  1. ##### MediaInfo ######

  2. General

  3. Unique ID : 226271970524879264042333296158693855422 (0xAA3A6577E90E40AAB1D0AE81625B10BE)

  4. Complete name : [email protected]BQDDQ.COM.mkv

  5. Format : Matroska

  6. Format version : Version 4

  7. File size : 6.97 GiB

  8. Duration : 1 h 51 min

  9. Overall bit rate : 8 979 kb/s

  10. Movie name : City Under Siege 2010

  11. Encoded date : UTC 2021-10-04 12:58:53

  12. Writing application : mkvmerge v61.0.0 ('So') 64-bit

  13. Writing library : libebml v1.4.2 + libmatroska v1.6.4

  14. Cover : Yes

  15. Attachments : cover.jpg


  16. Video

  17. ID : 1

  18. Format : HEVC

  19. Format/Info : High Efficiency Video Coding

  20. Format profile : Main [email protected]@Main

  21. Codec ID : V_MPEGH/ISO/HEVC

  22. Duration : 1 h 51 min

  23. Bit rate : 7 416 kb/s

  24. Width : 1 920 pixels

  25. Height : 818 pixels

  26. Display aspect ratio : 2.35:1

  27. Frame rate mode : Constant

  28. Frame rate : 24.000 FPS

  29. Color space : YUV

  30. Chroma subsampling : 4:2:0

  31. Bit depth : 10 bits

  32. Bits/(Pixel*Frame) : 0.197

  33. Stream size : 5.76 GiB (83%)

  34. Writing library : x265 3.5+2-g2b25c9ba0+45:[Windows][GCC 10.2.0][64 bit] Yuuki 10bit+8bit+12bit

  35. Encoding settings : rc=crf / crf=17.0000 / qcomp=0.60 / qpstep=4 / stats-write=0 / stats-read=0 / no-lossless / no-cu-lossless / aq-mode=3 / aq-strength=0.90 / cbqpoffs=0 / crqpoffs=0 / ipratio=1.40 / pbratio=1.30 / psy-rd=2.00 / psy-rdoq=0.00 / deblock=0:0 / ref=6 / limit-refs=1 / no-limit-modes / bframes=8 / b-adapt=2 / bframe-bias=0 / b-pyramid / b-intra / weightp / weightb / min-keyint=24 / max-keyint=240 / rc-lookahead=24 / gop-lookahead=0 / NTMzNTQ=uuDQuD2mJt9fsCf / scenecut=40 / hist-scenecut=0 / radl=0 / max-cu-size=64 / min-cu-size=8 / me=3 / subme=7 / merange=48 / rdoq-level=0 / rd=4 / rdpenalty=0 / dynamic-rd=0.00 / no-rd-refine / ----- / cutree / sao / no-rect / no-amp / no-open-gop / wpp / no-pmode / no-pme / no-psnr / no-ssim / nr-intra=0 / nr-inter=0 / no-constrained-intra / no-strong-intra-smoothing / max-tu-size=32 / tu-inter-depth=1 / tu-intra-depth=1 / limit-tu=0 / qg-size=32 / qpmax=69 / qpmin=0 / ----- / cpuid=533541111039 / frame-threads=4 / numa-pools=+ / log-level=2 / input-csp=1 / input-res=1920x818 / interlace=0 / level-idc=0 / high-tier=1 / uhd-bd=0 / no-allow-non-conformance / repeat-headers / aud / no-hrd / info / hash=0 / no-temporal-layers / lookahead-slices=0 / no-splice / no-intra-refresh / no-ssim-rd / signhide / no-tskip / max-merge=3 / temporal-mvp / no-frame-dup / no-hme / no-analyze-src-pics / no-sao-non-deblock / selective-sao=4 / early-skip / rskip / no-fast-intra / no-tskip-fast / no-splitrd-skip / zone-count=0 / no-strict-cbr / no-rc-grain / no-const-vbv / sar=0 / overscan=0 / videoformat=5 / range=0 / colorprim=2 / transfer=2 / colormatrix=2 / chromaloc=0 / display-window=0 / cll=0,0 / min-luma=0 / max-luma=1023 / log2-max-poc-lsb=8 / vui-timing-info / vui-hrd-info / slices=1 / no-opt-qp-pps / no-opt-ref-list-length-pps / no-multi-pass-opt-rps / scenecut-bias=0.05 / hist-threshold=0.03 / no-opt-cu-delta-qp / no-aq-motion / no-hdr10 / no-hdr10-opt / no-dhdr10-opt / no-idr-recovery-sei / analysis-reuse-level=0 / analysis-save-reuse-level=0 / analysis-load-reuse-level=0 / scale-factor=0 / refine-intra=0 / refine-inter=0 / refine-mv=1 / refine-ctu-distortion=0 / no-limit-sao / ctu-info=0 / no-lowpass-dct / refine-analysis-type=0 / copy-pic=1 / max-ausize-factor=1.0 / no-dynamic-refine / no-single-sei / no-hevc-aq / no-svt / no-field / qp-adaptation-range=1.00 / scenecut-aware-qp=0conformance-window-offsets / right=0 / bottom=0 / NTMzNTQ= / decoder-max-rate=0 / no-vbv-live-multi-pass

  36. Default : Yes

  37. Forced : No


  38. Audio #1

  39. ID : 2

  40. ID in the original source medium : 4353 (0x1101)

  41. Format : DTS

  42. Format/Info : Digital Theater Systems

  43. Codec ID : A_DTS

  44. Duration : 1 h 51 min

  45. Bit rate mode : Constant

  46. Bit rate : 768 kb/s

  47. Channel(s) : 6 channels

  48. Channel layout : C L R Ls Rs LFE

  49. Sampling rate : 48.0 kHz

  50. Frame rate : 93.750 FPS (512 SPF)

  51. Bit depth : 16 bits

  52. Compression mode : Lossy

  53. Stream size : 611 MiB (9%)

  54. Title : Cantonese

  55. Language : Chinese

  56. Default : Yes

  57. Forced : No

  58. Original source medium : Blu-ray


  59. Audio #2

  60. ID : 3

  61. ID in the original source medium : 4355 (0x1103)

  62. Format : DTS

  63. Format/Info : Digital Theater Systems

  64. Codec ID : A_DTS

  65. Duration : 1 h 51 min

  66. Bit rate mode : Constant

  67. Bit rate : 768 kb/s

  68. Channel(s) : 6 channels

  69. Channel layout : C L R Ls Rs LFE

  70. Sampling rate : 48.0 kHz

  71. Frame rate : 93.750 FPS (512 SPF)

  72. Bit depth : 16 bits

  73. Compression mode : Lossy

  74. Stream size : 611 MiB (9%)

  75. Title : Mandarin

  76. Language : Chinese

  77. Default : No

  78. Forced : No

  79. Original source medium : Blu-ray


  80. Text #1

  81. ID : 4

  82. ID in the original source medium : 4609 (0x1201)

  83. Format : PGS

  84. Muxing mode : zlib

  85. Codec ID : S_HDMV/PGS

  86. Codec ID/Info : Picture based subtitle format used on BDs/HD-DVDs

  87. Duration : 1 h 47 min

  88. Bit rate : 22.3 kb/s

  89. Count of elements : 2276

  90. Stream size : 17.1 MiB (0%)

  91. Title : chs

  92. Language : Chinese

  93. Default : Yes

  94. Forced : No

  95. Original source medium : Blu-ray


  96. Text #2

  97. ID : 5

  98. ID in the original source medium : 4608 (0x1200)

  99. Format : PGS

  100. Muxing mode : zlib

  101. Codec ID : S_HDMV/PGS

  102. Codec ID/Info : Picture based subtitle format used on BDs/HD-DVDs

  103. Duration : 1 h 47 min

  104. Bit rate : 24.0 kb/s

  105. Count of elements : 2276

  106. Stream size : 18.4 MiB (0%)

  107. Title : cht

  108. Language : Chinese

  109. Default : No

  110. Forced : No

  111. Original source medium : Blu-ray


  112. Text #3

  113. ID : 6

  114. ID in the original source medium : 4610 (0x1202)

  115. Format : PGS

  116. Muxing mode : zlib

  117. Codec ID : S_HDMV/PGS

  118. Codec ID/Info : Picture based subtitle format used on BDs/HD-DVDs

  119. Duration : 1 h 47 min

  120. Bit rate : 26.8 kb/s

  121. Count of elements : 2282

  122. Stream size : 20.6 MiB (0%)

  123. Language : English

  124. Default : No

  125. Forced : No

  126. Original source medium : Blu-ray


  127. Menu

  128. 00:00:00.000 : Chapter 01

  129. 00:11:33.375 : Chapter 02

  130. 00:23:39.666 : Chapter 03

  131. 00:29:47.333 : Chapter 04

  132. 00:39:06.250 : Chapter 05

  133. 00:49:16.541 : Chapter 06

  134. 00:58:24.166 : Chapter 07

  135. 01:09:02.625 : Chapter 08

  136. 01:14:16.666 : Chapter 09

  137. 01:23:35.833 : Chapter 10

  138. 01:33:16.500 : Chapter 11

  139. 01:39:03.458 : Chapter 12


文件下载


除非特别注明,本文『全城戒备[国粤语配音/中文字幕].City.Under.Siege.2010.1080p.BluRay.x265.10bit.DTS.2Audio 6.97GB』来源于互联网机器人自动抓取,非本站原创。 浮游电影网不对本文拥有版权,如有侵犯,请联系邮箱:fuyouu#yandex.com[#换成@]投诉。我们会在15个工作日内删除。 但烦请转载时请标明出处:“本文转载于『浮游电影网』,原文地址:https://www.fuyouu.com/14760.html

评论吧骚年!

发表你的见解   

昵称*

E-mail*(建议输入,以便收到博主回复的提示邮件)

验证码*

您可以使用eMule或eMule Mod(Windows)、aMule(Win、Linux、Mac)等软件下载eD2k链接。。
eMule收藏集(.emulecollection)文件是您选中的所有链接的列表文件。eMule可以直接下载它们。
按住SHIFT键选择可以选中多个选择框。
可用文件名和大小选择器来选择文件。
文件名选择器帮您根据文件名称或后缀来选择文件。不分大小写。
符号使用:
和:空格( )、+
不包含:-
或:|
转义:一对英文引号("");
匹配开头:^
匹配结尾:$
例如:
选中所有名称中包含有“eMule”或“0.49c”字眼,但不包含有“exe”字眼的:emule|0.49c -exe
选中所有名称的开头是“eMule”,结尾是“0.49c”的:^emule 0.49c$
选中所有名称中带有“eMule 0.49c”的(必须是“eMule 0.49c”,中间没有别的字符,不能是“eMule fake 0.49c”),需要转义:"emule 0.49c"
大小选择器帮您根据文件大小选择文件。