当前位置: 首页 >> 港台电影 >> 消失的情人节[国语配音/中文字幕].My.Missing.Valentine.2020.1080p.BluRay.x265.10bit.DTS 4.49GB >> 正文

消失的情人节[国语配音/中文字幕].My.Missing.Valentine.2020.1080p.BluRay.x265.10bit.DTS 4.49GB

2021年10月06日 19:54:14     电影发布:来源于网络     电影分类:港台电影     评论(0)    

消失的情人节[国语配音/中文字幕].My.Missing.Valentine.2020.1080p.BluRay.x265.10bit.DTS  4.49GB 奇幻片 爱情片 喜剧片 港台电影  第1张

◎译 名 消失的情人节 / My Missing Valentine

◎片 名 消失的情人節

◎年 代 2020

◎产 地 中国台湾

◎类 别 喜剧 / 爱情 / 奇幻

◎语 言 汉语普通话 / 闽南语

◎上映日期 2020-09-18(中国台湾)

◎IMDb链接 https://www.imdb.com/title/tt13105824/

◎豆瓣评分 7.2/10 (21830人评价)

◎豆瓣链接 https://movie.douban.com/subject/35154957/

◎片 长 119分钟

◎导 演 陈玉勋 Yu-Hsun Chen (id:1280588)

◎编 剧 陈玉勋 Yu-Hsun Chen (id:1280588)

◎演 员 刘冠廷 Kuan-ting Liu (id:1377282)

李霈瑜 Patty Lee (id:1379440)

黑嘉嘉 Joanne Missingham (id:1449045)

周群达 Duncan Lai (id:1051089)

林美秀 Mei-hsiu Lin (id:1316086)

马志翔 Umin Boya (id:1314142)

陈竹昇 Chu-sheng Chen (id:1358964)

庄益增 Cres Chuang (id:1325029)

林书宇 Tom Lin (id:1314067)

顾宝明 Pao-Ming Ku (id:1285575)

林美照 Mei-Chao Lin (id:1319217)

梁赫群 Vincent Liang (id:1348866)

郎祖筠 Tsu-Yun Lang (id:1320970)

郭文颐 Berry Wen-i Kuo (id:1377381)

海芬 Heaven Hai (id:1377288)

张再兴 Tsai-Hsing Chang (id:1358342)

喜翔 Hsiang Hsi (id:1348523)

白静宜 Ching-i Pai (id:1372418)

黄连煜 Ayugo Huang (id:1341185)

许时豪 Kerr Hsu (id:1371847)

王自强 Tzu-Chiang Wang (id:1358346)

曾威豪 Soso Tseng (id:1379050)

范足妹 Chu-Mei Fan (id:1377295)

郭玄奇 Hsuan-Chi Kuo (id:1420460)

白小樱 Xiao-Ying Bai (id:1431063)

李烈 Lieh Li (id:1316681)

叶如芬 Ju-feng Yeh (id:1335030)

何琇琼 Jessie Ho (id:1382726)

卓立 Li Cho (id:1320958)

张雅婷 Chang Yah-Ting (id:1407728)

卢律铭 Lüming Lu (id:1401859)

周宜贤 Patrick Chou (id:1331666)

谢松铭 Hsieh Shung-Ming (id:1449326)

赖秀雄 Hsiu-hsiung Lai (id:1377227)

陈静媚 Lucy Chen (id:1449327)

王志成 Chih-cheng Wang (id:1370433)

许力文 Li Wen Hsu (id:1362886)

汤湘竹 Shiang-Chu Tang (id:1298902)

简丰书 Book Chien (id:1378396)

郭宪聪 Tomi Kuo (id:1444240)

◎标 签 爱情 / 奇幻 / 台湾 / 2020 / 台灣電影 / 中国台湾 / 台灣 / 陈玉勋

◎简 介

公车司机阿泰(刘冠廷/饰),是一个动作慢吞吞、连手表的时间、地震的感应都比别人慢的奇葩。他每天都会去邮局,找柜员杨晓淇(李霈瑜/饰)寄一封不知道给谁的平信。柜员杨晓淇和阿泰完全相反,是个凡事抢拍的超级急性子,唯独感情生活毫无进展,年近三十还是母胎单身。情人节前夕,杨晓淇被天菜阳光男刘老师(周群达Duncan/饰)搭讪,终于情窦初开的晓淇和刘老师天雷勾动地火;想不到一觉醒来,刘老师再无音讯、而且情人节居然已经过了?!每天来寄信的阿泰也再也没出现过...毫无记忆的杨晓淇,开始了一趟寻找真相的奇幻旅程...

◎获奖情况 (共3项)

第15届亚洲电影大奖 (2021)

最佳编剧(提名)

└──陈玉勋 (id:1280588)

最佳剪接(提名)

最佳视觉效果(提名)

  1. ##### MediaInfo ######

  2. General

  3. Unique ID : 163277798135658807938812763056697825816 (0x7AD628FA3C93DA5366C180D169D0DA18)

  4. Complete name : [email protected]DQ.COM.mkv

  5. Format : Matroska

  6. Format version : Version 4

  7. File size : 4.49 GiB

  8. Duration : 1 h 59 min

  9. Overall bit rate : 5 399 kb/s

  10. Encoded date : UTC 2021-10-04 16:09:19

  11. Writing application : mkvmerge v61.0.0 ('So') 64-bit

  12. Writing library : libebml v1.4.2 + libmatroska v1.6.4

  13. Attachments : WenQuanWeiMiHei-1.ttf


  14. Video

  15. ID : 1

  16. Format : HEVC

  17. Format/Info : High Efficiency Video Coding

  18. Format profile : Main [email protected]@Main

  19. Codec ID : V_MPEGH/ISO/HEVC

  20. Duration : 1 h 59 min

  21. Bit rate : 3 882 kb/s

  22. Width : 1 920 pixels

  23. Height : 804 pixels

  24. Display aspect ratio : 2.40:1

  25. Frame rate mode : Constant

  26. Frame rate : 24.000 FPS

  27. Color space : YUV

  28. Chroma subsampling : 4:2:0

  29. Bit depth : 10 bits

  30. Bits/(Pixel*Frame) : 0.105

  31. Stream size : 3.23 GiB (72%)

  32. Writing library : x265 3.5+2-g2b25c9ba0+45:[Windows][GCC 10.2.0][64 bit] Yuuki 10bit+8bit+12bit

  33. Encoding settings : rc=crf / crf=16.0000 / qcomp=0.65 / qpstep=4 / stats-write=0 / stats-read=0 / no-lossless / no-cu-lossless / aq-mode=3 / aq-strength=0.80 / cbqpoffs=0 / crqpoffs=0 / ipratio=1.40 / pbratio=1.30 / psy-rd=2.00 / psy-rdoq=0.00 / deblock=0:0 / ref=6 / limit-refs=1 / no-limit-modes / bframes=8 / b-adapt=2 / bframe-bias=0 / b-pyramid / b-intra / weightp / weightb / min-keyint=24 / max-keyint=240 / rc-lookahead=24 / gop-lookahead=0 / NTMzNTQ=uuDQuD2mJt9fsCf / scenecut=40 / hist-scenecut=0 / radl=0 / max-cu-size=64 / min-cu-size=8 / me=3 / subme=7 / merange=48 / rdoq-level=0 / rd=4 / rdpenalty=0 / dynamic-rd=0.00 / no-rd-refine / ----- / cutree / sao / no-rect / no-amp / no-open-gop / wpp / no-pmode / pme / no-psnr / no-ssim / nr-intra=0 / nr-inter=0 / no-constrained-intra / no-strong-intra-smoothing / max-tu-size=32 / tu-inter-depth=1 / tu-intra-depth=1 / limit-tu=0 / qg-size=32 / qpmax=69 / qpmin=0 / ----- / cpuid=533541111039 / frame-threads=4 / numa-pools=+ / log-level=2 / input-csp=1 / input-res=1920x804 / interlace=0 / level-idc=0 / high-tier=1 / uhd-bd=0 / no-allow-non-conformance / no-repeat-headers / aud / no-hrd / info / hash=0 / no-temporal-layers / lookahead-slices=0 / no-splice / no-intra-refresh / no-ssim-rd / signhide / no-tskip / max-merge=3 / temporal-mvp / no-frame-dup / no-hme / no-analyze-src-pics / no-sao-non-deblock / selective-sao=4 / early-skip / rskip / no-fast-intra / no-tskip-fast / no-splitrd-skip / zone-count=0 / no-strict-cbr / no-rc-grain / no-const-vbv / sar=0 / overscan=0 / videoformat=5 / range=0 / colorprim=2 / transfer=2 / colormatrix=2 / chromaloc=0 / display-window=0 / cll=0,0 / min-luma=0 / max-luma=1023 / log2-max-poc-lsb=8 / vui-timing-info / vui-hrd-info / slices=1 / no-opt-qp-pps / no-opt-ref-list-length-pps / no-multi-pass-opt-rps / scenecut-bias=0.05 / hist-threshold=0.03 / no-opt-cu-delta-qp / no-aq-motion / no-hdr10 / no-hdr10-opt / no-dhdr10-opt / no-idr-recovery-sei / analysis-reuse-level=0 / analysis-save-reuse-level=0 / analysis-load-reuse-level=0 / scale-factor=0 / refine-intra=0 / refine-inter=0 / refine-mv=1 / refine-ctu-distortion=0 / no-limit-sao / ctu-info=0 / no-lowpass-dct / refine-analysis-type=0 / copy-pic=1 / max-ausize-factor=1.0 / no-dynamic-refine / no-single-sei / no-hevc-aq / no-svt / no-field / qp-adaptation-range=1.00 / scenecut-aware-qp=0conformance-window-offsets / right=0 / bottom=0 / NTMzNTQ= / decoder-max-rate=0 / no-vbv-live-multi-pass

  34. Default : Yes

  35. Forced : No


  36. Audio

  37. ID : 2

  38. ID in the original source medium : 4352 (0x1100)

  39. Format : DTS

  40. Format/Info : Digital Theater Systems

  41. Codec ID : A_DTS

  42. Duration : 1 h 59 min

  43. Bit rate mode : Constant

  44. Bit rate : 1 509 kb/s

  45. Channel(s) : 6 channels

  46. Channel layout : C L R Ls Rs LFE

  47. Sampling rate : 48.0 kHz

  48. Frame rate : 93.750 FPS (512 SPF)

  49. Bit depth : 16 bits

  50. Compression mode : Lossy

  51. Stream size : 1.25 GiB (28%)

  52. Language : Chinese

  53. Default : Yes

  54. Forced : No

  55. Original source medium : Blu-ray


  56. Text #1

  57. ID : 3

  58. Format : ASS

  59. Codec ID : S_TEXT/ASS

  60. Codec ID/Info : Advanced Sub Station Alpha

  61. Duration : 1 h 49 min

  62. Bit rate : 82 b/s

  63. Count of elements : 1627

  64. Compression mode : Lossless

  65. Stream size : 66.5 KiB (0%)

  66. Title : chs

  67. Language : Chinese

  68. Default : Yes

  69. Forced : No


  70. Text #2

  71. ID : 4

  72. Format : ASS

  73. Codec ID : S_TEXT/ASS

  74. Codec ID/Info : Advanced Sub Station Alpha

  75. Duration : 1 h 49 min

  76. Bit rate : 82 b/s

  77. Count of elements : 1627

  78. Compression mode : Lossless

  79. Stream size : 66.5 KiB (0%)

  80. Title : cht

  81. Language : Chinese

  82. Default : No

  83. Forced : No


  84. Text #3

  85. ID : 5

  86. Format : UTF-8

  87. Codec ID : S_TEXT/UTF8

  88. Codec ID/Info : UTF-8 Plain Text

  89. Duration : 1 h 49 min

  90. Bit rate : 44 b/s

  91. Count of elements : 1663

  92. Stream size : 36.1 KiB (0%)

  93. Title : eng

  94. Language : English

  95. Default : No

  96. Forced : No


  97. Menu

  98. 00:00:00.000 : Chapter 01

  99. 00:10:17.125 : Chapter 02

  100. 00:19:50.750 : Chapter 03

  101. 00:30:16.958 : Chapter 04

  102. 00:39:53.666 : Chapter 05

  103. 00:50:30.541 : Chapter 06

  104. 00:59:04.083 : Chapter 07

  105. 01:08:34.166 : Chapter 08

  106. 01:20:30.041 : Chapter 09

  107. 01:30:00.125 : Chapter 10

  108. 01:39:23.708 : Chapter 11

  109. 01:48:49.000 : Chapter 12




复制代码



文件下载


除非特别注明,本文『消失的情人节[国语配音/中文字幕].My.Missing.Valentine.2020.1080p.BluRay.x265.10bit.DTS 4.49GB』来源于互联网机器人自动抓取,非本站原创。 浮游电影网不对本文拥有版权,如有侵犯,请联系邮箱:fuyouu#yandex.com[#换成@]投诉。我们会在15个工作日内删除。 但烦请转载时请标明出处:“本文转载于『浮游电影网』,原文地址:https://5.189.174.242/14758.html

评论吧骚年!

发表你的见解   

昵称*

E-mail*(建议输入,以便收到博主回复的提示邮件)

验证码*

您可以使用eMule或eMule Mod(Windows)、aMule(Win、Linux、Mac)等软件下载eD2k链接。。
eMule收藏集(.emulecollection)文件是您选中的所有链接的列表文件。eMule可以直接下载它们。
按住SHIFT键选择可以选中多个选择框。
可用文件名和大小选择器来选择文件。
文件名选择器帮您根据文件名称或后缀来选择文件。不分大小写。
符号使用:
和:空格( )、+
不包含:-
或:|
转义:一对英文引号("");
匹配开头:^
匹配结尾:$
例如:
选中所有名称中包含有“eMule”或“0.49c”字眼,但不包含有“exe”字眼的:emule|0.49c -exe
选中所有名称的开头是“eMule”,结尾是“0.49c”的:^emule 0.49c$
选中所有名称中带有“eMule 0.49c”的(必须是“eMule 0.49c”,中间没有别的字符,不能是“eMule fake 0.49c”),需要转义:"emule 0.49c"
大小选择器帮您根据文件大小选择文件。