当前位置: 首页 >> 国产电影 >> 数字猎凶者[国语配音/中文字幕].The.Unexpected.Man.2021.WEB-DL.1080p.H265.AAC 1.56GB >> 正文

数字猎凶者[国语配音/中文字幕].The.Unexpected.Man.2021.WEB-DL.1080p.H265.AAC 1.56GB

2021年10月04日 21:40:05     电影发布:来源于网络     电影分类:国产电影     评论(0)    

数字猎凶者[国语配音/中文字幕].The.Unexpected.Man.2021.WEB DL.1080p.H265.AAC 1.56GB 剧情片 国产电影  第1张

◎译 名 数字猎凶者

◎年 代 2021

◎产 地 中国大陆

◎语 言 汉语普通话

◎上映日期 2021-09-27(中国大陆)

◎IMDb链接 https://www.imdb.com/title//

◎豆瓣链接 https://movie.douban.com/subject/30353260/

◎编 剧 李克龙 Kelong Li (id:1319721)

◎演 员 韩兆 Zhao Han (id:1317375)

廖蔚蔚 Weiwei Liao (id:1342129)

齐志 Zhi Qi (id:1322627)

来喜 Laixi (id:1321645)

郭金杰 Jinjie Guo (id:1329637)

陈嘉男 Jianan Chen (id:1400486)

◎标 签 大陆 / 阿狸的

◎简 介

数字猎凶者》由中央军委后勤保障部金盾影视中心、东阳好视佳影业有限公司、深圳市昊宇星际影视文化传播有限公司,大宋如歌影业(北京)有限公司、山东杰百旺影视文化有限公司联合出品,制片人是吴振伟、何伟铭张丽华,编剧是李克龙,还有青年导演张建康,更有韩兆、廖蔚蔚、齐志、来喜、郭金杰、陈嘉男等一批老戏骨倾情加盟,电影围绕“数字”来展开,在统计局上班的“数学天才”陈正因误打误撞协助警方破译了抢劫犯丁强的肖像秘密而名声大噪,被市民尊称为“数字侠”,然而好景不长,丁强闺女丁若冰为父报仇化身黑客“金手指”入侵刑警队电脑扬言设下隐形炸弹,一时间人心慌慌,千钧一发之际,陈正临危受命破解“金手指”设下的三组方程式……

  1. ##### MediaInfo ######

  2. General

  3. Unique ID : 292854866800553031047958463288794814656 (0xDC51CBB529A0C8C2C9181AE86C9A18C0)

  4. Complete name : The Unexpected Man 2021 WEB-DL 1080p H265 [email protected]

  5. Format : Matroska

  6. Format version : Version 4

  7. File size : 1.56 GiB

  8. Duration : 1 h 37 min

  9. Overall bit rate : 2 288 kb/s

  10. Encoded date : UTC 2021-10-03 17:18:06

  11. Writing application : mkvmerge v61.0.0 ('So') 64-bit

  12. Writing library : libebml v1.4.2 + libmatroska v1.6.4


  13. Video

  14. ID : 1

  15. Format : HEVC

  16. Format/Info : High Efficiency Video Coding

  17. Format profile : [email protected]@Main

  18. Codec ID : V_MPEGH/ISO/HEVC

  19. Duration : 1 h 37 min

  20. Bit rate : 2 095 kb/s

  21. Width : 1 920 pixels

  22. Height : 816 pixels

  23. Display aspect ratio : 2.35:1

  24. Frame rate mode : Constant

  25. Frame rate : 24.000 FPS

  26. Color space : YUV

  27. Chroma subsampling : 4:2:0

  28. Bit depth : 8 bits

  29. Bits/(Pixel*Frame) : 0.056

  30. Stream size : 1.43 GiB (92%)

  31. Default : Yes

  32. Forced : No


  33. Audio

  34. ID : 2

  35. Format : AAC LC

  36. Format/Info : Advanced Audio Codec Low Complexity

  37. Codec ID : A_AAC-2

  38. Duration : 1 h 37 min

  39. Bit rate : 192 kb/s

  40. Channel(s) : 2 channels

  41. Channel layout : L R

  42. Sampling rate : 44.1 kHz

  43. Frame rate : 43.066 FPS (1024 SPF)

  44. Compression mode : Lossy

  45. Stream size : 133 MiB (8%)

  46. Language : Chinese

  47. Default : Yes

  48. Forced : No


  49. Text #1

  50. ID : 3

  51. Format : UTF-8

  52. Codec ID : S_TEXT/UTF8

  53. Codec ID/Info : UTF-8 Plain Text

  54. Duration : 1 h 34 min

  55. Bit rate : 44 b/s

  56. Count of elements : 1580

  57. Stream size : 30.7 KiB (0%)

  58. Title : 简体中文

  59. Language : Chinese

  60. Default : Yes

  61. Forced : No


  62. Text #2

  63. ID : 4

  64. Format : UTF-8

  65. Codec ID : S_TEXT/UTF8

  66. Codec ID/Info : UTF-8 Plain Text

  67. Duration : 1 h 34 min

  68. Bit rate : 44 b/s

  69. Count of elements : 1580

  70. Stream size : 30.7 KiB (0%)

  71. Title : 繁体中文

  72. Language : Chinese

  73. Default : No

  74. Forced : No


  75. Text #3

  76. ID : 5

  77. Format : UTF-8

  78. Codec ID : S_TEXT/UTF8

  79. Codec ID/Info : UTF-8 Plain Text

  80. Duration : 1 h 35 min

  81. Bit rate : 56 b/s

  82. Count of elements : 1609

  83. Stream size : 39.8 KiB (0%)

  84. Title : 英语

  85. Language : English

  86. Default : No

  87. Forced : No


  88. Text #4

  89. ID : 6

  90. Format : UTF-8

  91. Codec ID : S_TEXT/UTF8

  92. Codec ID/Info : UTF-8 Plain Text

  93. Duration : 1 h 35 min

  94. Bit rate : 63 b/s

  95. Count of elements : 1609

  96. Stream size : 44.5 KiB (0%)

  97. Title : 韩语

  98. Language : Korean

  99. Default : No

  100. Forced : No


  101. Text #5

  102. ID : 7

  103. Format : UTF-8

  104. Codec ID : S_TEXT/UTF8

  105. Codec ID/Info : UTF-8 Plain Text

  106. Duration : 1 h 35 min

  107. Bit rate : 139 b/s

  108. Count of elements : 1609

  109. Stream size : 97.5 KiB (0%)

  110. Title : 泰语

  111. Language : Thai

  112. Default : No

  113. Forced : No


  114. Text #6

  115. ID : 8

  116. Format : UTF-8

  117. Codec ID : S_TEXT/UTF8

  118. Codec ID/Info : UTF-8 Plain Text

  119. Duration : 1 h 35 min

  120. Bit rate : 59 b/s

  121. Count of elements : 1609

  122. Stream size : 41.5 KiB (0%)

  123. Title : 马来语

  124. Language : Malay

  125. Default : No

  126. Forced : No


  127. Text #7

  128. ID : 9

  129. Format : UTF-8

  130. Codec ID : S_TEXT/UTF8

  131. Codec ID/Info : UTF-8 Plain Text

  132. Duration : 1 h 35 min

  133. Bit rate : 79 b/s

  134. Count of elements : 1609

  135. Stream size : 55.5 KiB (0%)

  136. Title : 越南语

  137. Language : Vietnamese

  138. Default : No

  139. Forced : No


  140. Text #8

  141. ID : 10

  142. Format : UTF-8

  143. Codec ID : S_TEXT/UTF8

  144. Codec ID/Info : UTF-8 Plain Text

  145. Duration : 1 h 35 min

  146. Bit rate : 63 b/s

  147. Count of elements : 1609

  148. Stream size : 44.6 KiB (0%)

  149. Title : 印尼语

  150. Language : Indonesian

  151. Default : No

  152. Forced : No


  153. Text #9

  154. ID : 11

  155. Format : UTF-8

  156. Codec ID : S_TEXT/UTF8

  157. Codec ID/Info : UTF-8 Plain Text

  158. Duration : 1 h 34 min

  159. Bit rate : 55 b/s

  160. Count of elements : 1580

  161. Stream size : 38.1 KiB (0%)

  162. Title : 西班牙语

  163. Language : Spanish

  164. Default : No

  165. Forced : No


  166. Text #10

  167. ID : 12

  168. Format : UTF-8

  169. Codec ID : S_TEXT/UTF8

  170. Codec ID/Info : UTF-8 Plain Text

  171. Duration : 1 h 35 min

  172. Bit rate : 83 b/s

  173. Count of elements : 1609

  174. Stream size : 58.1 KiB (0%)

  175. Title : 阿拉伯语

  176. Language : Arabic

  177. Default : No

  178. Forced : No




复制代码



文件下载


除非特别注明,本文『数字猎凶者[国语配音/中文字幕].The.Unexpected.Man.2021.WEB-DL.1080p.H265.AAC 1.56GB』来源于互联网机器人自动抓取,非本站原创。 浮游电影网不对本文拥有版权,如有侵犯,请联系邮箱:fuyouu#yandex.com[#换成@]投诉。我们会在15个工作日内删除。 但烦请转载时请标明出处:“本文转载于『浮游电影网』,原文地址:https://www.fuyouu.com/14751.html

评论吧骚年!

发表你的见解   

昵称*

E-mail*(建议输入,以便收到博主回复的提示邮件)

验证码*

您可以使用eMule或eMule Mod(Windows)、aMule(Win、Linux、Mac)等软件下载eD2k链接。。
eMule收藏集(.emulecollection)文件是您选中的所有链接的列表文件。eMule可以直接下载它们。
按住SHIFT键选择可以选中多个选择框。
可用文件名和大小选择器来选择文件。
文件名选择器帮您根据文件名称或后缀来选择文件。不分大小写。
符号使用:
和:空格( )、+
不包含:-
或:|
转义:一对英文引号("");
匹配开头:^
匹配结尾:$
例如:
选中所有名称中包含有“eMule”或“0.49c”字眼,但不包含有“exe”字眼的:emule|0.49c -exe
选中所有名称的开头是“eMule”,结尾是“0.49c”的:^emule 0.49c$
选中所有名称中带有“eMule 0.49c”的(必须是“eMule 0.49c”,中间没有别的字符,不能是“eMule fake 0.49c”),需要转义:"emule 0.49c"
大小选择器帮您根据文件大小选择文件。