当前位置: 首页 >> 国产电影 >> 你好,之华[国语配音/中文字幕].Last.Letter.2018.2160p.WEB-DL.H265.DDP5.1 13.39GB >> 正文

你好,之华[国语配音/中文字幕].Last.Letter.2018.2160p.WEB-DL.H265.DDP5.1 13.39GB

2021年10月04日 21:38:55     电影发布:来源于网络     电影分类:国产电影     评论(0)    

你好,之华[国语配音/中文字幕].Last.Letter.2018.2160p.WEB DL.H265.DDP5.1 13.39GB 爱情片 剧情片 国产电影  第1张

◎译 名 你好,之华 / 之华 / Last Letter

◎年 代 2018

◎产 地 中国大陆

◎类 别 剧情 / 爱情

◎语 言 汉语普通话

◎上映日期 2018-11-09(中国大陆)

◎IMDb链接 https://www.imdb.com/title/tt9078374/

◎豆瓣评分 6.7/10 (245472人评价)

◎豆瓣链接 https://movie.douban.com/subject/27615233/

◎片 长 114分钟

◎导 演 岩井俊二 Shunji Iwai (id:1005064)

◎编 剧 岩井俊二 Shunji Iwai (id:1005064)

◎演 员 周迅 Xun Zhou (id:1027798)

秦昊 Hao Qin (id:1274463)

杜江 Jiang Du (id:1322949)

张子枫 Zifeng Zhang (id:1274254)

邓恩熙 Enxi Deng (id:1369977)

边天扬 Tianyang Bian (id:1403817)

吴彦姝 Yanshu Wu (id:1338004)

谭卓 Zhuo Tan (id:1312976)

胡歌 Ge Hu (id:1274477)

胡昌霖 Changlin Hu (id:1407476)

李春明 Chunming Li (id:1407478)

高炳然 Bingran Gao (id:1417767)

白素娟 Sujuan Bai (id:1417766)

刘思博 Sibo Liu (id:1360062)

常海波 Haibo Chang (id:1336857)

李勇 Yong Li (id:1403160)

刘笑语 Xiaoyu Liu (id:1407480)

赵芙丽 Fuli Zhao (id:1328748)

建圳 Zhen Jian (id:1417769)

郭德诚 Decheng Guo (id:1417768)

王靖宇 Jingyu Wang (id:1405320)

李泽宇 Zeyu Li (id:1407481)

仇硕康 Shuokang Qiu (id:1399618)

艺涵 Yihan (id:1407482)

李昊芳 Haofang Li (id:1365508)

王子璇 Zixuan Wang (id:1358958)

王远达 Yuanda Wang (id:1371785)

陈可辛 Peter Chan (id:1274300)

岩井俊二 Shunji Iwai (id:1005064)

唐昕 Xin Tang (id:1377500)

傅若清 Ruoqing Fu (id:1417588)

覃宏 Hong Qin (id:1275502)

岩井俊二 Shunji Iwai (id:1005064)

神户千木 Chigi Kanbe (id:1406456)

岩井俊二 Shunji Iwai (id:1005064)

陆文华 Man-Wah Luk (id:1290441)

袴田知世枝 Chiyoe Hakamada (id:1406457)

陈迪凯 Water Chan Tik-Hoi (id:1345570)

胡歌 Ge Hu (id:1274477)

李媛 Yuan Li (id:1314374)

许伊萌 Yimeng Xu (id:1330070)

吴碧海 Bihai Wu (id:1373159)

高华阳 Zack Gao (id:1341199)

许宏宇 Derek Hui (id:1275501)

◎标 签 文艺 / 爱情 / 青春 / 怀旧 / 中国大陆 / 日本 / 2018 / 剧情

◎简 介

生死离别,红颜薄命。告别了命途乖离的姐姐,袁之华(周迅 饰)带着些许落寞的心情和丈夫以及姐姐的儿子晨晨踏上归途。临走的时候,她从外甥女睦睦(邓恩熙 饰)手中接过一封邀请函,这是姐姐袁之南初中同学会的邀请。在久别重逢的老友欢聚环境中,被众人当作之南的之华无法坦然道出姐姐去世的事实。她选择先行离去,途中却又与姐妹俩的旧相识尹川(秦昊 饰)重逢。在此之后,之华以姐姐的名义给尹川写信,重温青葱时代的记忆。与此同时,待在老家的睦睦和之华的女儿飒然(张子枫 饰)接到了尹川的来信,出于对母亲过往的好奇,她们以稚嫩的笔触写了回信。

喧嚣匆忙的电子时代,两代人分出三地,重绘他们逝去的岁月人生……

◎获奖情况 (共5项)

第55届台北金马影展 (2018)

金马奖 最佳女主角(提名)

└──周迅 (id:1027798)

金马奖 最佳女配角(提名)

└──张子枫 (id:1274254)

金马奖 最佳原著剧本(提名)

└──岩井俊二 (id:1005064)

年度优秀奖

第38届香港电影金像奖 (2019)

最佳两岸华语电影(提名)

└──岩井俊二 (id:1005064)

  1. ##### MediaInfo ######

  2. General

  3. Complete name : 你好,之华[email protected]

  4. Format : MPEG-4

  5. Format profile : Base Media

  6. Codec ID : isom (isom/iso2/mp41)

  7. File size : 13.4 GiB

  8. Duration : 1 h 53 min

  9. Overall bit rate mode : Variable

  10. Overall bit rate : 16.9 Mb/s

  11. Writing application : OurTV Multimedia Platform


  12. Video

  13. ID : 1

  14. Format : HEVC

  15. Format/Info : High Efficiency Video Coding

  16. Format profile : [email protected]@Main

  17. Codec ID : hev1

  18. Codec ID/Info : High Efficiency Video Coding

  19. Duration : 1 h 53 min

  20. Bit rate : 16.5 Mb/s

  21. Width : 3 840 pixels

  22. Height : 2 160 pixels

  23. Display aspect ratio : 16:9

  24. Frame rate mode : Constant

  25. Frame rate : 24.000 FPS

  26. Color space : YUV

  27. Chroma subsampling : 4:2:0

  28. Bit depth : 8 bits

  29. Bits/(Pixel*Frame) : 0.083

  30. Stream size : 13.0 GiB (97%)

  31. Codec configuration box : hvcC


  32. Audio #1

  33. ID : 2

  34. Format : E-AC-3

  35. Format/Info : Enhanced AC-3

  36. Commercial name : Dolby Digital Plus

  37. Codec ID : ec-3

  38. Duration : 1 h 53 min

  39. Bit rate mode : Constant

  40. Bit rate : 256 kb/s

  41. Channel(s) : 6 channels

  42. Channel layout : L R C LFE Ls Rs

  43. Sampling rate : 48.0 kHz

  44. Frame rate : 31.250 FPS (1536 SPF)

  45. Compression mode : Lossy

  46. Stream size : 208 MiB (2%)

  47. Title : 国语DDP5.1

  48. Language : Chinese

  49. Service kind : Complete Main

  50. Default : Yes

  51. Alternate group : 1


  52. Audio #2

  53. ID : 3

  54. Format : AAC LC

  55. Format/Info : Advanced Audio Codec Low Complexity

  56. Codec ID : mp4a-40-2

  57. Duration : 1 h 53 min

  58. Bit rate mode : Variable

  59. Bit rate : 192 kb/s

  60. Maximum bit rate : 195 kb/s / 195 kb/s

  61. Channel(s) : 2 channels

  62. Channel layout : L R

  63. Sampling rate : 44.1 kHz

  64. Frame rate : 43.066 FPS (1024 SPF)

  65. Compression mode : Lossy

  66. Stream size : 154 MiB (1%)

  67. Title : 国语AAC2.0

  68. Language : Chinese

  69. Default : No

  70. Alternate group : 1




复制代码



文件下载


除非特别注明,本文『你好,之华[国语配音/中文字幕].Last.Letter.2018.2160p.WEB-DL.H265.DDP5.1 13.39GB』来源于互联网机器人自动抓取,非本站原创。 浮游电影网不对本文拥有版权,如有侵犯,请联系邮箱:fuyouu#yandex.com[#换成@]投诉。我们会在15个工作日内删除。 但烦请转载时请标明出处:“本文转载于『浮游电影网』,原文地址:https://www.fuyouu.com/14750.html

评论吧骚年!

发表你的见解   

昵称*

E-mail*(建议输入,以便收到博主回复的提示邮件)

验证码*

您可以使用eMule或eMule Mod(Windows)、aMule(Win、Linux、Mac)等软件下载eD2k链接。。
eMule收藏集(.emulecollection)文件是您选中的所有链接的列表文件。eMule可以直接下载它们。
按住SHIFT键选择可以选中多个选择框。
可用文件名和大小选择器来选择文件。
文件名选择器帮您根据文件名称或后缀来选择文件。不分大小写。
符号使用:
和:空格( )、+
不包含:-
或:|
转义:一对英文引号("");
匹配开头:^
匹配结尾:$
例如:
选中所有名称中包含有“eMule”或“0.49c”字眼,但不包含有“exe”字眼的:emule|0.49c -exe
选中所有名称的开头是“eMule”,结尾是“0.49c”的:^emule 0.49c$
选中所有名称中带有“eMule 0.49c”的(必须是“eMule 0.49c”,中间没有别的字符,不能是“eMule fake 0.49c”),需要转义:"emule 0.49c"
大小选择器帮您根据文件大小选择文件。