当前位置: 首页 >> 日韩电影 >> 黄海[中文字幕].The.Yellow.Sea.2010.1080p.BluRay.x265.10bit.DTS 8.85GB >> 正文

黄海[中文字幕].The.Yellow.Sea.2010.1080p.BluRay.x265.10bit.DTS 8.85GB

2021年10月04日 21:32:08     电影发布:来源于网络     电影分类:日韩电影     评论(0)    

黄海[中文字幕].The.Yellow.Sea.2010.1080p.BluRay.x265.10bit.DTS 8.85GB 犯罪片 动作片 剧情片 日韩电影  第1张

◎译 名 黄海 / 追击者2之黄海杀机(港) / 黄海追缉(台) / The Murderer / The Yellow Sea / Hwanghae / The Killer

◎片 名 ??

◎年 代 2010

◎产 地 韩国 / 美国 / 中国香港

◎类 别 剧情 / 动作 / 犯罪

◎语 言 韩语 / 汉语普通话

◎上映日期 2010-12-22(韩国)

◎IMDb链接 https://www.imdb.com/title/tt1230385/

◎豆瓣评分 8.5/10 (180212人评价)

◎豆瓣链接 https://movie.douban.com/subject/3743114/

◎片 长 157分钟(韩国)

◎导 演 罗泓轸 Hong-jin Na (id:1274385)

◎编 剧 罗泓轸 Hong-jin Na (id:1274385)

洪元灿 Won-Chan Hong (id:1349036)

◎演 员 河正宇 Jung-woo Ha (id:1032680)

金允石 Yoon-suk Kim (id:1310942)

郑满植 Man-shik Jeong (id:1327294)

李哲民 Cheol-min Lee (id:1316063)

李艾 Elle Lee (id:1338489)

刘河福 Ha-bok Yoo (id:1376443)

赵河硕 Ha-suk Jo (id:1392045)

全仁杰 In-geol Jeon (id:1448440)

姜贤重 Hyun-joong Kang (id:1398005)

白贤宇 Hyung-woo Baek (id:1448101)

徐东锡 Seo Dong-seok (id:1385929)

金东贤 Dong-hyeon Kim (id:1446313)

杨基元 Ki-Won Yang (id:1344335)

尹炳熙 Yoon Byeong-hee (id:1382221)

廉东铉 Dong-heon Yeom (id:1435807)

千明宰 Myung-Jae Cheon (id:1429996)

孙康国 Kang-gook Son (id:1390278)

廉东宪 Dong-hun Yum (id:1385207)

赵成夏 Sung-ha Cho (id:1320867)

方惠英 Hae-young Bang (id:1323604)

郭度沅 Do-Won Kwak (id:1320516)

李熙俊 Hee-jun Lee (id:1326499)

林艺媛 Ye-won Lim (id:1338488)

卓成恩 Seong-eun Tak (id:1338490)

赵在允 Jae-yun Jo (id:1345499)

朴秉恩 Byung-eun Park (id:1320142)

李瑜美 Yoo-mi Lee (id:1381539)

崔旭 Wook Choi (id:1456990)

李炳勋 Byung-hoon Lee (id:1331962)

张领圭 Young-gyu Jang (id:1329974)

Sung-je Lee Sung-je Lee (id:1331114)

金鲜珉 Sun-min Kim (id:1302605)

蔡京华 Kyung-hwa Chae (id:1312176)

罗光旭 Jonathan Na (id:1378577)

金在华 Jae-hwa Kim (id:1339671)

◎标 签 犯罪 / 韩国 / 暴力 / 河正宇 / 韩国电影 / 悬疑 / 金允石 / 罗宏镇

◎简 介

为了能让妻子去韩国打工,出租车司机久南(河正宇 Jeong-woo Ha 饰)不惜借6万块钱的巨款。妻子已经有六个月没有消息了,久南每日只能用酒精和赌博来麻醉自己的神经。一天,在债主的介绍下,久南认识了绵先生。绵先生不仅愿意帮助他偷渡到韩国寻找妻子,而且愿意为他还掉所有 的债务,条件是让他在首尔杀一个人。几经波折,久南最终渡过茫茫黄海到达首尔,然而要杀死被严密保护的对象并不那么容易,久南一边开始周密的计划,一边开始到处打听妻子的下落。妻子就像从人间消失了一样音讯全无,而并没有杀人的久南却因出现在凶案现场而成为警方通缉的疑犯。此时,由于怕买凶杀人的事情暴露,从延边赶来的绵先生也极力致久南于死地,久南几乎陷入绝望的境地……

河政宇凭借此片获得第47届百想艺术大赏颁奖礼最佳男演员奖。

◎获奖情况 (共17项)

第64届戛纳电影节 (2011)

一种关注单元 一种关注大奖(提名)

└──罗泓轸 (id:1274385)

第5届亚洲电影大奖 (2011)

我最喜爱的男女主角 我最喜爱的男主角(提名)

└──河正宇 (id:1032680)

最佳导演(提名)

└──罗泓轸 (id:1274385)

最佳男主角

└──河正宇 (id:1032680)

最佳原创音乐(提名)

最佳美术指导(提名)

└──李景浩 (id:1328464)

第48届韩国电影大钟奖 (2011)

最佳影片(提名)

最佳导演(提名)

└──罗泓轸 (id:1274385)

最佳男主角(提名)

└──金允石 (id:1310942)

最佳男配角

└──赵成夏 (id:1320867)

最佳摄影(提名)

└──Sung-je Lee (id:1331114)

最佳剪辑(提名)

最佳美术(提名)

最佳服装

最佳音效(提名)

最佳视觉效果(提名)

最佳照明(提名)

  1. ##### MediaInfo ######

  2. General

  3. Unique ID : 184437562215218189592598310176570354957 (0x8AC161E492DB557F292CA7CC695A2D0D)

  4. Complete name : [email protected].mkv

  5. Format : Matroska

  6. Format version : Version 4

  7. File size : 8.85 GiB

  8. Duration : 2 h 20 min

  9. Overall bit rate : 9 042 kb/s

  10. Movie name : The Yellow Sea 2010

  11. Encoded date : UTC 2021-10-03 02:56:26

  12. Writing application : mkvmerge v61.0.0 ('So') 64-bit

  13. Writing library : libebml v1.4.2 + libmatroska v1.6.4

  14. Cover : Yes

  15. Attachments : cover.jpg


  16. Video

  17. ID : 1

  18. Format : HEVC

  19. Format/Info : High Efficiency Video Coding

  20. Format profile : Main [email protected]@Main

  21. Codec ID : V_MPEGH/ISO/HEVC

  22. Duration : 2 h 20 min

  23. Bit rate : 7 520 kb/s

  24. Width : 1 920 pixels

  25. Height : 816 pixels

  26. Display aspect ratio : 2.35:1

  27. Frame rate mode : Constant

  28. Frame rate : 23.976 (24000/1001/53354) FPS

  29. Color space : YUV

  30. Chroma subsampling : 4:2:0

  31. Bit depth : 10 bits

  32. Bits/(Pixel*Frame) : 0.200

  33. Stream size : 7.36 GiB (83%)

  34. Writing library : x265 3.5+2-g2b25c9ba0+45:[Windows][GCC 10.2.0][64 bit] Yuuki 10bit+8bit+12bit

  35. Encoding settings : rc=crf / crf=18.5000 / qcomp=0.60 / qpstep=4 / stats-write=0 / stats-read=0 / no-lossless / no-cu-lossless / aq-mode=3 / aq-strength=0.90 / cbqpoffs=0 / crqpoffs=0 / ipratio=1.40 / pbratio=1.30 / psy-rd=2.00 / psy-rdoq=0.00 / deblock=0:0 / ref=6 / limit-refs=1 / no-limit-modes / bframes=8 / b-adapt=2 / bframe-bias=0 / b-pyramid / b-intra / weightp / weightb / min-keyint=24 / max-keyint=240 / rc-lookahead=24 / gop-lookahead=0 / NTMzNTQ=uuDQuD2mJt9fsCf / scenecut=40 / hist-scenecut=0 / radl=0 / max-cu-size=64 / min-cu-size=8 / me=3 / subme=7 / merange=48 / rdoq-level=0 / rd=4 / rdpenalty=0 / dynamic-rd=0.00 / no-rd-refine / ----- / cutree / sao / no-rect / no-amp / no-open-gop / wpp / no-pmode / no-pme / no-psnr / no-ssim / nr-intra=0 / nr-inter=0 / no-constrained-intra / no-strong-intra-smoothing / max-tu-size=32 / tu-inter-depth=1 / tu-intra-depth=1 / limit-tu=0 / qg-size=32 / qpmax=69 / qpmin=0 / ----- / cpuid=533541111039 / frame-threads=4 / numa-pools=+ / log-level=2 / input-csp=1 / input-res=1920x816 / interlace=0 / level-idc=0 / high-tier=1 / uhd-bd=0 / no-allow-non-conformance / repeat-headers / aud / no-hrd / info / hash=0 / no-temporal-layers / lookahead-slices=0 / no-splice / no-intra-refresh / no-ssim-rd / signhide / no-tskip / max-merge=3 / temporal-mvp / no-frame-dup / no-hme / no-analyze-src-pics / no-sao-non-deblock / selective-sao=4 / early-skip / rskip / no-fast-intra / no-tskip-fast / no-splitrd-skip / zone-count=0 / no-strict-cbr / no-rc-grain / no-const-vbv / sar=0 / overscan=0 / videoformat=5 / range=0 / colorprim=2 / transfer=2 / colormatrix=2 / chromaloc=0 / display-window=0 / cll=0,0 / min-luma=0 / max-luma=1023 / log2-max-poc-lsb=8 / vui-timing-info / vui-hrd-info / slices=1 / no-opt-qp-pps / no-opt-ref-list-length-pps / no-multi-pass-opt-rps / scenecut-bias=0.05 / hist-threshold=0.03 / no-opt-cu-delta-qp / no-aq-motion / no-hdr10 / no-hdr10-opt / no-dhdr10-opt / no-idr-recovery-sei / analysis-reuse-level=0 / analysis-save-reuse-level=0 / analysis-load-reuse-level=0 / scale-factor=0 / refine-intra=0 / refine-inter=0 / refine-mv=1 / refine-ctu-distortion=0 / no-limit-sao / ctu-info=0 / no-lowpass-dct / refine-analysis-type=0 / copy-pic=1 / max-ausize-factor=1.0 / no-dynamic-refine / no-single-sei / no-hevc-aq / no-svt / no-field / qp-adaptation-range=1.00 / scenecut-aware-qp=0conformance-window-offsets / right=0 / bottom=0 / NTMzNTQ= / decoder-max-rate=0 / no-vbv-live-multi-pass

  36. Default : Yes

  37. Forced : No


  38. Audio

  39. ID : 2

  40. ID in the original source medium : 4352 (0x1100)

  41. Format : DTS

  42. Format/Info : Digital Theater Systems

  43. Codec ID : A_DTS

  44. Duration : 2 h 20 min

  45. Bit rate mode : Constant

  46. Bit rate : 1 509 kb/s

  47. Channel(s) : 6 channels

  48. Channel layout : C L R Ls Rs LFE

  49. Sampling rate : 48.0 kHz

  50. Frame rate : 93.750 FPS (512 SPF)

  51. Bit depth : 16 bits

  52. Compression mode : Lossy

  53. Stream size : 1.48 GiB (17%)

  54. Language : Korean

  55. Default : Yes

  56. Forced : No

  57. Original source medium : Blu-ray


  58. Text #1

  59. ID : 3

  60. ID in the original source medium : 4609 (0x1201)

  61. Format : PGS

  62. Muxing mode : zlib

  63. Codec ID : S_HDMV/PGS

  64. Codec ID/Info : Picture based subtitle format used on BDs/HD-DVDs

  65. Duration : 2 h 13 min

  66. Bit rate : 11.0 kb/s

  67. Count of elements : 1762

  68. Stream size : 10.5 MiB (0%)

  69. Language : Chinese

  70. Default : No

  71. Forced : No

  72. Original source medium : Blu-ray


  73. Text #2

  74. ID : 4

  75. ID in the original source medium : 4608 (0x1200)

  76. Format : PGS

  77. Muxing mode : zlib

  78. Codec ID : S_HDMV/PGS

  79. Codec ID/Info : Picture based subtitle format used on BDs/HD-DVDs

  80. Duration : 2 h 13 min

  81. Bit rate : 12.6 kb/s

  82. Count of elements : 1532

  83. Stream size : 11.9 MiB (0%)

  84. Language : English

  85. Default : No

  86. Forced : No

  87. Original source medium : Blu-ray


  88. Menu

  89. 00:00:00.000 : Chapter 01

  90. 00:07:55.975 : Chapter 02

  91. 00:17:01.645 : Chapter 03

  92. 00:23:12.474 : Chapter 04

  93. 00:33:55.533 : Chapter 05

  94. 00:45:08.539 : Chapter 06

  95. 00:58:10.862 : Chapter 07

  96. 01:09:13.107 : Chapter 08

  97. 01:15:11.840 : Chapter 09

  98. 01:27:51.933 : Chapter 10

  99. 01:43:13.353 : Chapter 11

  100. 01:50:10.228 : Chapter 12

  101. 02:10:04.630 : Chapter 13

  102. 02:14:53.835 : Chapter 14


文件下载


除非特别注明,本文『黄海[中文字幕].The.Yellow.Sea.2010.1080p.BluRay.x265.10bit.DTS 8.85GB』来源于互联网机器人自动抓取,非本站原创。 浮游电影网不对本文拥有版权,如有侵犯,请联系邮箱:fuyouu#yandex.com[#换成@]投诉。我们会在15个工作日内删除。 但烦请转载时请标明出处:“本文转载于『浮游电影网』,原文地址:https://www.fuyouu.com/14745.html

评论吧骚年!

发表你的见解   

昵称*

E-mail*(建议输入,以便收到博主回复的提示邮件)

验证码*

您可以使用eMule或eMule Mod(Windows)、aMule(Win、Linux、Mac)等软件下载eD2k链接。。
eMule收藏集(.emulecollection)文件是您选中的所有链接的列表文件。eMule可以直接下载它们。
按住SHIFT键选择可以选中多个选择框。
可用文件名和大小选择器来选择文件。
文件名选择器帮您根据文件名称或后缀来选择文件。不分大小写。
符号使用:
和:空格( )、+
不包含:-
或:|
转义:一对英文引号("");
匹配开头:^
匹配结尾:$
例如:
选中所有名称中包含有“eMule”或“0.49c”字眼,但不包含有“exe”字眼的:emule|0.49c -exe
选中所有名称的开头是“eMule”,结尾是“0.49c”的:^emule 0.49c$
选中所有名称中带有“eMule 0.49c”的(必须是“eMule 0.49c”,中间没有别的字符,不能是“eMule fake 0.49c”),需要转义:"emule 0.49c"
大小选择器帮您根据文件大小选择文件。