当前位置: 首页 >> 国产电影 >> 不见不散[国语配音/中文字幕].Be.There.or.Be.Square.1998.1080p.BluRay.x265.10bit.DTS.2.0 6.28GB >> 正文

不见不散[国语配音/中文字幕].Be.There.or.Be.Square.1998.1080p.BluRay.x265.10bit.DTS.2.0 6.28GB

2021年10月04日 21:23:27     电影发布:来源于网络     电影分类:国产电影     评论(0)    

不见不散[国语配音/中文字幕].Be.There.or.Be.Square.1998.1080p.BluRay.x265.10bit.DTS.2.0 6.28GB 爱情片 喜剧片 国产电影  第1张

◎译 名 不见不散 / Be There or Be Square

◎年 代 1998

◎产 地 中国大陆

◎类 别 喜剧 / 爱情

◎语 言 汉语普通话 / 英语

◎上映日期 1998-12-24(中国大陆)

◎IMDb链接 https://www.imdb.com/title/tt0199354/

◎豆瓣评分 7.9/10 (135569人评价)

◎豆瓣链接 https://movie.douban.com/subject/1307014/

◎片 长 103分钟

◎导 演 冯小刚 Xiaogang Feng (id:1274255)

◎编 剧 顾晓阳 Xiao Yang Gu (id:1319650)

冯小刚 Xiaogang Feng (id:1274255)

◎演 员 葛优 You Ge (id:1000905)

徐帆 Fan Xu (id:1017207)

李晓耕 Xiaogeng Li (id:1375595)

韩三平 Sanping Han (id:1274843)

陆国强 Guoqiang Lu (id:1398246)

三宝 Bao San (id:1296601)

赵非 Fei Zhao (id:1283522)

周影 Ying Zhou (id:1301713)

◎标 签 喜剧 / 中国 / 爱情 / 国产 / 贺岁 / 经典 / 1998 / 搞笑

◎简 介

不是冤家不聚头,刘元(葛优 饰)和李清(徐帆 饰)正应了这句话。他们在美国初遇,那时候,李清刚到美国,替一个台湾朋友看屋,就碰上了接待中国剧组的刘元。几番来回,二人有了些粗浅的了解。刘元给了李清一张机票,劝她回国,前途会比这里好。

李清却留在了美国,一年后还碰巧和刘元的车撞上了。机缘巧合,刘元让李清到他的旅行社工作,怎料旅行社搞非法移民的勾当,李清一身麻烦,一气之下叫刘元以后再也别联系自己。想不到,一年后他们重遇,又一起办起了补习班。

两人就这样反复的重聚分开。直到老去的某天,才有了一个契机,让他们互诉衷情。

◎获奖情况 (共4项)

第19届中国电影金鸡奖 (1999)

最佳女主角(提名)

└──徐帆 (id:1017207)

第6届北京大学生电影节 (1999)

最佳观赏效果奖

最受大学生欢迎影片

最受大学生欢迎女演员

└──徐帆 (id:1017207)

  1. ##### MediaInfo ######

  2. General

  3. Unique ID : 36082350696800630979949456988952009199 (0x1B25353D54B4B5FC9B6555FA3D2B19EF)

  4. Complete name : B[email protected]BBQDDQ.COM.mkv

  5. Format : Matroska

  6. Format version : Version 4

  7. File size : 6.28 GiB

  8. Duration : 1 h 43 min

  9. Overall bit rate : 8 709 kb/s

  10. Movie name : Be There or Be Square 1998

  11. Encoded date : UTC 2021-10-03 03:42:50

  12. Writing application : mkvmerge v61.0.0 ('So') 64-bit

  13. Writing library : libebml v1.4.2 + libmatroska v1.6.4


  14. Video

  15. ID : 1

  16. Format : HEVC

  17. Format/Info : High Efficiency Video Coding

  18. Format profile : Main [email protected]@Main

  19. Codec ID : V_MPEGH/ISO/HEVC

  20. Duration : 1 h 43 min

  21. Bit rate : 7 144 kb/s

  22. Width : 1 920 pixels

  23. Height : 1 080 pixels

  24. Display aspect ratio : 16:9

  25. Frame rate mode : Constant

  26. Frame rate : 24.000 FPS

  27. Color space : YUV

  28. Chroma subsampling : 4:2:0

  29. Bit depth : 10 bits

  30. Bits/(Pixel*Frame) : 0.144

  31. Stream size : 5.15 GiB (82%)

  32. Writing library : x265 3.5+2-g2b25c9ba0+45:[Windows][GCC 10.2.0][64 bit] Yuuki 10bit+8bit+12bit

  33. Encoding settings : rc=crf / crf=18.0000 / qcomp=0.60 / qpstep=4 / stats-write=0 / stats-read=0 / no-lossless / no-cu-lossless / aq-mode=3 / aq-strength=0.90 / cbqpoffs=0 / crqpoffs=0 / ipratio=1.40 / pbratio=1.30 / psy-rd=2.00 / psy-rdoq=0.00 / deblock=0:0 / ref=6 / limit-refs=1 / no-limit-modes / bframes=8 / b-adapt=2 / bframe-bias=0 / b-pyramid / b-intra / weightp / weightb / min-keyint=24 / max-keyint=240 / rc-lookahead=24 / gop-lookahead=0 / NTMzNTQ=uuDQuD2mJt9fsCf / scenecut=40 / hist-scenecut=0 / radl=0 / max-cu-size=64 / min-cu-size=8 / me=3 / subme=7 / merange=48 / rdoq-level=0 / rd=4 / rdpenalty=0 / dynamic-rd=0.00 / no-rd-refine / ----- / cutree / sao / no-rect / no-amp / no-open-gop / wpp / no-pmode / no-pme / no-psnr / no-ssim / nr-intra=0 / nr-inter=0 / no-constrained-intra / no-strong-intra-smoothing / max-tu-size=32 / tu-inter-depth=1 / tu-intra-depth=1 / limit-tu=0 / qg-size=32 / qpmax=69 / qpmin=0 / ----- / cpuid=533541111039 / frame-threads=4 / numa-pools=+ / log-level=2 / input-csp=1 / input-res=1920x1080 / interlace=0 / level-idc=0 / high-tier=1 / uhd-bd=0 / no-allow-non-conformance / repeat-headers / aud / no-hrd / info / hash=0 / no-temporal-layers / lookahead-slices=0 / no-splice / no-intra-refresh / no-ssim-rd / signhide / no-tskip / max-merge=3 / temporal-mvp / no-frame-dup / no-hme / no-analyze-src-pics / no-sao-non-deblock / selective-sao=4 / early-skip / rskip / no-fast-intra / no-tskip-fast / no-splitrd-skip / zone-count=0 / no-strict-cbr / no-rc-grain / no-const-vbv / sar=0 / overscan=0 / videoformat=5 / range=0 / colorprim=2 / transfer=2 / colormatrix=2 / chromaloc=0 / display-window=0 / cll=0,0 / min-luma=0 / max-luma=1023 / log2-max-poc-lsb=8 / vui-timing-info / vui-hrd-info / slices=1 / no-opt-qp-pps / no-opt-ref-list-length-pps / no-multi-pass-opt-rps / scenecut-bias=0.05 / hist-threshold=0.03 / no-opt-cu-delta-qp / no-aq-motion / no-hdr10 / no-hdr10-opt / no-dhdr10-opt / no-idr-recovery-sei / analysis-reuse-level=0 / analysis-save-reuse-level=0 / analysis-load-reuse-level=0 / scale-factor=0 / refine-intra=0 / refine-inter=0 / refine-mv=1 / refine-ctu-distortion=0 / no-limit-sao / ctu-info=0 / no-lowpass-dct / refine-analysis-type=0 / copy-pic=1 / max-ausize-factor=1.0 / no-dynamic-refine / no-single-sei / no-hevc-aq / no-svt / no-field / qp-adaptation-range=1.00 / scenecut-aware-qp=0conformance-window-offsets / right=0 / bottom=0 / NTMzNTQ= / decoder-max-rate=0 / no-vbv-live-multi-pass

  34. Default : Yes

  35. Forced : No


  36. Audio

  37. ID : 2

  38. Format : DTS

  39. Format/Info : Digital Theater Systems

  40. Codec ID : A_DTS

  41. Duration : 1 h 43 min

  42. Bit rate mode : Constant

  43. Bit rate : 1 509 kb/s

  44. Channel(s) : 2 channels

  45. Channel layout : L R

  46. Sampling rate : 48.0 kHz

  47. Frame rate : 93.750 FPS (512 SPF)

  48. Bit depth : 16 bits

  49. Compression mode : Lossy

  50. Stream size : 1.09 GiB (17%)

  51. Title : Mandarin

  52. Language : Chinese

  53. Default : Yes

  54. Forced : No


  55. Text #1

  56. ID : 3

  57. ID in the original source medium : 4608 (0x1200)

  58. Format : PGS

  59. Muxing mode : zlib

  60. Codec ID : S_HDMV/PGS

  61. Codec ID/Info : Picture based subtitle format used on BDs/HD-DVDs

  62. Duration : 1 h 39 min

  63. Bit rate : 35.1 kb/s

  64. Count of elements : 1932

  65. Stream size : 25.0 MiB (0%)

  66. Title : chs

  67. Language : Chinese

  68. Default : Yes

  69. Forced : No

  70. Original source medium : Blu-ray


  71. Text #2

  72. ID : 4

  73. ID in the original source medium : 4609 (0x1201)

  74. Format : PGS

  75. Muxing mode : zlib

  76. Codec ID : S_HDMV/PGS

  77. Codec ID/Info : Picture based subtitle format used on BDs/HD-DVDs

  78. Duration : 1 h 39 min

  79. Bit rate : 36.5 kb/s

  80. Count of elements : 1932

  81. Stream size : 26.0 MiB (0%)

  82. Title : cht

  83. Language : Chinese

  84. Default : No

  85. Forced : No

  86. Original source medium : Blu-ray


  87. Text #3

  88. ID : 5

  89. ID in the original source medium : 4610 (0x1202)

  90. Format : PGS

  91. Muxing mode : zlib

  92. Codec ID : S_HDMV/PGS

  93. Codec ID/Info : Picture based subtitle format used on BDs/HD-DVDs

  94. Duration : 1 h 39 min

  95. Bit rate : 44.6 kb/s

  96. Count of elements : 1932

  97. Stream size : 31.8 MiB (0%)

  98. Language : English

  99. Default : No

  100. Forced : No

  101. Original source medium : Blu-ray


  102. Menu

  103. 00:00:00.000 : Chapter 01

  104. 00:09:55.000 : Chapter 02

  105. 00:20:54.000 : Chapter 03

  106. 00:30:50.000 : Chapter 04

  107. 00:40:07.000 : Chapter 05

  108. 00:50:05.000 : Chapter 06

  109. 01:00:51.000 : Chapter 07

  110. 01:09:38.000 : Chapter 08

  111. 01:19:44.000 : Chapter 09

  112. 01:30:07.000 : Chapter 10




复制代码



文件下载


除非特别注明,本文『不见不散[国语配音/中文字幕].Be.There.or.Be.Square.1998.1080p.BluRay.x265.10bit.DTS.2.0 6.28GB』来源于互联网机器人自动抓取,非本站原创。 浮游电影网不对本文拥有版权,如有侵犯,请联系邮箱:fuyouu#yandex.com[#换成@]投诉。我们会在15个工作日内删除。 但烦请转载时请标明出处:“本文转载于『浮游电影网』,原文地址:https://www.fuyouu.com/14741.html

评论吧骚年!

发表你的见解   

昵称*

E-mail*(建议输入,以便收到博主回复的提示邮件)

验证码*

您可以使用eMule或eMule Mod(Windows)、aMule(Win、Linux、Mac)等软件下载eD2k链接。。
eMule收藏集(.emulecollection)文件是您选中的所有链接的列表文件。eMule可以直接下载它们。
按住SHIFT键选择可以选中多个选择框。
可用文件名和大小选择器来选择文件。
文件名选择器帮您根据文件名称或后缀来选择文件。不分大小写。
符号使用:
和:空格( )、+
不包含:-
或:|
转义:一对英文引号("");
匹配开头:^
匹配结尾:$
例如:
选中所有名称中包含有“eMule”或“0.49c”字眼,但不包含有“exe”字眼的:emule|0.49c -exe
选中所有名称的开头是“eMule”,结尾是“0.49c”的:^emule 0.49c$
选中所有名称中带有“eMule 0.49c”的(必须是“eMule 0.49c”,中间没有别的字符,不能是“eMule fake 0.49c”),需要转义:"emule 0.49c"
大小选择器帮您根据文件大小选择文件。