当前位置: 首页 >> 国产电影 >> 花园农家[国语配音/中文字幕].Hua.Yuan.Nong.Jia.2009.2160p.WEB-DL.H265.DD2.0 19.73GB >> 正文

花园农家[国语配音/中文字幕].Hua.Yuan.Nong.Jia.2009.2160p.WEB-DL.H265.DD2.0 19.73GB

2021年10月04日 21:17:32     电影发布:来源于网络     电影分类:国产电影     评论(0)    

花园农家[国语配音/中文字幕].Hua.Yuan.Nong.Jia.2009.2160p.WEB DL.H265.DD2.0 19.73GB 剧情片 国产电影  第1张

◎译 名 花园农家

◎年 代 2009

◎产 地 中国大陆

◎语 言 普通话 / 国语

◎上映日期 2009-12-12

◎IMDb链接 https://www.imdb.com/title//

◎豆瓣链接 https://movie.douban.com/subject/5256433/

◎标 签 很喜欢农村题材的喜剧电影 / 花园农家 / 没看过聂琳峰演戏 / 147

◎简 介

岗头村王书记在女儿的引导下,协助早年带领大伙挖通通向外部世界公路、创造了岗头坪“新愚公精神”的田大山,战败腐败村长麻将父子重新当上了岗头坪村村长。

但是,王书记计划带领大伙进行农房改造,改变农村的落后住房面貌;而号称取经和尚的田大山却打算带领大家发展经济,让大伙的钱袋子都鼓起来。两人的施政方向出现偏差,并发生了矛盾。于是两个核心村干部在村里便形成了住房改造和发展经济,两派互相制约,是村子的发展陷入僵局。 天大山的儿子竹根和王书记的女儿杨梅相爱。全家反对竹根爱杨梅。于是两人只好外出打工。 一场强台风时村里旧房变成一片狼藉,那些支持王书记农房改造的家庭却没有受到影响,这样的局面动摇了田大山的施政意志,田大山也...

  1. ##### MediaInfo ######

  2. General

  3. Complete name : 花园农家[email protected].mp4

  4. Format : MPEG-4

  5. Format profile : Base Media

  6. Codec ID : isom (isom/iso2/mp41)

  7. File size : 19.7 GiB

  8. Duration : 1 h 34 min

  9. Overall bit rate : 30.0 Mb/s

  10. Writing application : OurTV Multimedia Platform


  11. Video

  12. ID : 1

  13. Format : HEVC

  14. Format/Info : High Efficiency Video Coding

  15. Format profile : [email protected]@High

  16. Codec ID : hev1

  17. Codec ID/Info : High Efficiency Video Coding

  18. Duration : 1 h 34 min

  19. Bit rate : 29.6 Mb/s

  20. Width : 3 840 pixels

  21. Height : 2 160 pixels

  22. Display aspect ratio : 16:9

  23. Frame rate mode : Constant

  24. Frame rate : 25.000 FPS

  25. Color space : YUV

  26. Chroma subsampling : 4:2:0

  27. Bit depth : 8 bits

  28. Bits/(Pixel*Frame) : 0.143

  29. Stream size : 19.5 GiB (99%)

  30. Writing library : PONTUS-series

  31. Color range : Limited

  32. Codec configuration box : hvcC


  33. Audio

  34. ID : 2

  35. Format : AC-3

  36. Format/Info : Audio Coding 3

  37. Commercial name : Dolby Digital

  38. Codec ID : ac-3

  39. Duration : 1 h 34 min

  40. Bit rate mode : Constant

  41. Bit rate : 384 kb/s

  42. Channel(s) : 2 channels

  43. Channel layout : L R

  44. Sampling rate : 48.0 kHz

  45. Frame rate : 31.250 FPS (1536 SPF)

  46. Compression mode : Lossy

  47. Stream size : 259 MiB (1%)

  48. Service kind : Complete Main

  49. Default : Yes

  50. Alternate group : 1


文件下载


除非特别注明,本文『花园农家[国语配音/中文字幕].Hua.Yuan.Nong.Jia.2009.2160p.WEB-DL.H265.DD2.0 19.73GB』来源于互联网机器人自动抓取,非本站原创。 浮游电影网不对本文拥有版权,如有侵犯,请联系邮箱:fuyouu#yandex.com[#换成@]投诉。我们会在15个工作日内删除。 但烦请转载时请标明出处:“本文转载于『浮游电影网』,原文地址:https://www.fuyouu.com/14739.html

评论吧骚年!

发表你的见解   

昵称*

E-mail*(建议输入,以便收到博主回复的提示邮件)

验证码*

您可以使用eMule或eMule Mod(Windows)、aMule(Win、Linux、Mac)等软件下载eD2k链接。。
eMule收藏集(.emulecollection)文件是您选中的所有链接的列表文件。eMule可以直接下载它们。
按住SHIFT键选择可以选中多个选择框。
可用文件名和大小选择器来选择文件。
文件名选择器帮您根据文件名称或后缀来选择文件。不分大小写。
符号使用:
和:空格( )、+
不包含:-
或:|
转义:一对英文引号("");
匹配开头:^
匹配结尾:$
例如:
选中所有名称中包含有“eMule”或“0.49c”字眼,但不包含有“exe”字眼的:emule|0.49c -exe
选中所有名称的开头是“eMule”,结尾是“0.49c”的:^emule 0.49c$
选中所有名称中带有“eMule 0.49c”的(必须是“eMule 0.49c”,中间没有别的字符,不能是“eMule fake 0.49c”),需要转义:"emule 0.49c"
大小选择器帮您根据文件大小选择文件。