当前位置: 首页 >> 欧美电影 >> 庄园夫人[中文字幕].Lady.of.the.Manor.2021.1080p.BluRay.x265.10bit.DTS 5.14GB >> 正文

庄园夫人[中文字幕].Lady.of.the.Manor.2021.1080p.BluRay.x265.10bit.DTS 5.14GB

2021年10月04日 21:16:23     电影发布:来源于网络     电影分类:欧美电影     评论(0)    

庄园夫人[中文字幕].Lady.of.the.Manor.2021.1080p.BluRay.x265.10bit.DTS 5.14GB 喜剧片 欧美电影  第1张

◎译 名 庄园夫人 / 女领主

◎片 名 Lady of the Manor

◎年 代 2021

◎产 地 美国

◎类 别 喜剧

◎语 言 英语

◎上映日期 2021-06-10(加斯帕里利亚国际电影节) / 2021-09-17(美国)

◎IMDb链接 https://www.imdb.com/title/tt11826450/

◎豆瓣评分 5.5/10 (115人评价)

◎豆瓣链接 https://movie.douban.com/subject/35072572/

◎导 演 贾斯汀·朗 Justin Long (id:1017904)

Christian Long (id:1236403)

◎编 剧 贾斯汀·朗 Justin Long (id:1017904)

Christian Long (id:1236403)

◎演 员 梅兰妮·林斯基 Melanie Lynskey (id:1044729)

朱迪·格雷尔 Judy Greer (id:1009256)

贾斯汀·朗 Justin Long (id:1017904)

瑞恩·菲利普 Ryan Phillippe (id:1040999)

路易斯·古兹曼 Luis Guzmán (id:1049639)

帕特里克·杜菲 Patrick Duffy (id:1031953)

◎标 签 喜剧 / 美国 / 奇幻 / 剧情 / 2021 / 美国电影 / 电影 / 灵异

◎简 介

在这部超搞笑的兄弟喜剧中,过去和现在发生了碰撞,吸毒的懒鬼汉娜(梅兰妮·林斯基饰)被雇来扮演沃兹沃斯夫人(朱迪·格里尔饰),一位死于1875年在沃兹沃斯庄园旅行的南方美女。汉娜,一团糟,认为她可以假装——直到沃兹沃斯夫人的鬼魂出现!在这部由贾斯汀·朗和瑞安·菲利普联袂主演的搞笑电影中,沃兹沃斯夫人告诉汉娜,是时候改变她狂野的生活方式了——她会一直缠着汉娜直到她改变。

  1. ##### MediaInfo ######

  2. General

  3. Unique ID : 92177836476932128275605177315230423866 (0x4558CE386461894CFCE7BA7C78DB1B3A)

  4. Complete name : [email protected]COM.mkv

  5. Format : Matroska

  6. Format version : Version 4

  7. File size : 5.14 GiB

  8. Duration : 1 h 36 min

  9. Overall bit rate : 7 619 kb/s

  10. Movie name : Lady Of The Manor - Blu-ray?

  11. Encoded date : UTC 2021-10-03 09:06:43

  12. Writing application : mkvmerge v61.0.0 ('So') 64-bit

  13. Writing library : libebml v1.4.2 + libmatroska v1.6.4

  14. Cover : Yes

  15. Attachments : cover.jpg


  16. Video

  17. ID : 1

  18. Format : HEVC

  19. Format/Info : High Efficiency Video Coding

  20. Format profile : Main [email protected]@Main

  21. Codec ID : V_MPEGH/ISO/HEVC

  22. Duration : 1 h 36 min

  23. Bit rate : 6 048 kb/s

  24. Width : 1 920 pixels

  25. Height : 1 036 pixels

  26. Display aspect ratio : 1.85:1

  27. Frame rate mode : Constant

  28. Frame rate : 23.976 (24000/1001/53354) FPS

  29. Color space : YUV

  30. Chroma subsampling : 4:2:0

  31. Bit depth : 10 bits

  32. Bits/(Pixel*Frame) : 0.127

  33. Stream size : 4.08 GiB (79%)

  34. Writing library : x265 3.5+2-g2b25c9ba0+45:[Windows][GCC 10.2.0][64 bit] Yuuki 10bit+8bit+12bit

  35. Encoding settings : rc=crf / crf=18.5000 / qcomp=0.65 / qpstep=4 / stats-write=0 / stats-read=0 / no-lossless / no-cu-lossless / aq-mode=3 / aq-strength=0.80 / cbqpoffs=0 / crqpoffs=0 / ipratio=1.40 / pbratio=1.30 / psy-rd=2.00 / psy-rdoq=0.00 / deblock=0:0 / ref=6 / limit-refs=1 / no-limit-modes / bframes=8 / b-adapt=2 / bframe-bias=0 / b-pyramid / b-intra / weightp / weightb / min-keyint=24 / max-keyint=240 / rc-lookahead=24 / gop-lookahead=0 / NTMzNTQ=uuDQuD2mJt9fsCf / scenecut=40 / hist-scenecut=0 / radl=0 / max-cu-size=64 / min-cu-size=8 / me=3 / subme=7 / merange=48 / rdoq-level=0 / rd=4 / rdpenalty=0 / dynamic-rd=0.00 / no-rd-refine / ----- / cutree / sao / no-rect / no-amp / no-open-gop / wpp / no-pmode / pme / no-psnr / no-ssim / nr-intra=0 / nr-inter=0 / no-constrained-intra / no-strong-intra-smoothing / max-tu-size=32 / tu-inter-depth=1 / tu-intra-depth=1 / limit-tu=0 / qg-size=32 / qpmax=69 / qpmin=0 / ----- / cpuid=533541111039 / frame-threads=4 / numa-pools=+ / log-level=2 / input-csp=1 / input-res=1920x1036 / interlace=0 / level-idc=0 / high-tier=1 / uhd-bd=0 / no-allow-non-conformance / no-repeat-headers / aud / no-hrd / info / hash=0 / no-temporal-layers / lookahead-slices=0 / no-splice / no-intra-refresh / no-ssim-rd / signhide / no-tskip / max-merge=3 / temporal-mvp / no-frame-dup / no-hme / no-analyze-src-pics / no-sao-non-deblock / selective-sao=4 / early-skip / rskip / no-fast-intra / no-tskip-fast / no-splitrd-skip / zone-count=0 / no-strict-cbr / no-rc-grain / no-const-vbv / sar=0 / overscan=0 / videoformat=5 / range=0 / colorprim=2 / transfer=2 / colormatrix=2 / chromaloc=0 / display-window=0 / cll=0,0 / min-luma=0 / max-luma=1023 / log2-max-poc-lsb=8 / vui-timing-info / vui-hrd-info / slices=1 / no-opt-qp-pps / no-opt-ref-list-length-pps / no-multi-pass-opt-rps / scenecut-bias=0.05 / hist-threshold=0.03 / no-opt-cu-delta-qp / no-aq-motion / no-hdr10 / no-hdr10-opt / no-dhdr10-opt / no-idr-recovery-sei / analysis-reuse-level=0 / analysis-save-reuse-level=0 / analysis-load-reuse-level=0 / scale-factor=0 / refine-intra=0 / refine-inter=0 / refine-mv=1 / refine-ctu-distortion=0 / no-limit-sao / ctu-info=0 / no-lowpass-dct / refine-analysis-type=0 / copy-pic=1 / max-ausize-factor=1.0 / no-dynamic-refine / no-single-sei / no-hevc-aq / no-svt / no-field / qp-adaptation-range=1.00 / scenecut-aware-qp=0conformance-window-offsets / right=0 / bottom=0 / NTMzNTQ= / decoder-max-rate=0 / no-vbv-live-multi-pass

  36. Default : Yes

  37. Forced : No


  38. Audio

  39. ID : 2

  40. ID in the original source medium : 4352 (0x1100)

  41. Format : DTS

  42. Format/Info : Digital Theater Systems

  43. Codec ID : A_DTS

  44. Duration : 1 h 36 min

  45. Bit rate mode : Constant

  46. Bit rate : 1 509 kb/s

  47. Channel(s) : 6 channels

  48. Channel layout : C L R Ls Rs LFE

  49. Sampling rate : 48.0 kHz

  50. Frame rate : 93.750 FPS (512 SPF)

  51. Bit depth : 24 bits

  52. Compression mode : Lossy

  53. Stream size : 1.02 GiB (20%)

  54. Language : English

  55. Default : Yes

  56. Forced : No

  57. Original source medium : Blu-ray


  58. Text #1

  59. ID : 3

  60. ID in the original source medium : 4610 (0x1202)

  61. Format : PGS

  62. Muxing mode : zlib

  63. Codec ID : S_HDMV/PGS

  64. Codec ID/Info : Picture based subtitle format used on BDs/HD-DVDs

  65. Duration : 1 h 36 min

  66. Bit rate : 35.8 kb/s

  67. Count of elements : 3170

  68. Stream size : 24.6 MiB (0%)

  69. Title : chs

  70. Language : Chinese

  71. Default : Yes

  72. Forced : No

  73. Original source medium : Blu-ray


  74. Text #2

  75. ID : 4

  76. ID in the original source medium : 4611 (0x1203)

  77. Format : PGS

  78. Muxing mode : zlib

  79. Codec ID : S_HDMV/PGS

  80. Codec ID/Info : Picture based subtitle format used on BDs/HD-DVDs

  81. Duration : 1 h 36 min

  82. Bit rate : 36.1 kb/s

  83. Count of elements : 3170

  84. Stream size : 24.9 MiB (0%)

  85. Title : cht

  86. Language : Chinese

  87. Default : No

  88. Forced : No

  89. Original source medium : Blu-ray


  90. Text #3

  91. ID : 5

  92. ID in the original source medium : 4608 (0x1200)

  93. Format : PGS

  94. Muxing mode : zlib

  95. Codec ID : S_HDMV/PGS

  96. Codec ID/Info : Picture based subtitle format used on BDs/HD-DVDs

  97. Duration : 1 h 35 min

  98. Bit rate : 53.1 kb/s

  99. Count of elements : 3395

  100. Stream size : 36.4 MiB (1%)

  101. Title : eng

  102. Language : English

  103. Default : No

  104. Forced : No

  105. Original source medium : Blu-ray


  106. Menu

  107. 00:00:00.000 : Chapter 01

  108. 00:06:59.252 : Chapter 02

  109. 00:12:20.573 : Chapter 03

  110. 00:17:52.863 : Chapter 04

  111. 00:22:24.259 : Chapter 05

  112. 00:29:55.168 : Chapter 06

  113. 00:32:31.699 : Chapter 07

  114. 00:39:46.509 : Chapter 08

  115. 00:47:05.823 : Chapter 09

  116. 00:51:21.495 : Chapter 10

  117. 00:56:30.178 : Chapter 11

  118. 01:01:58.423 : Chapter 12

  119. 01:08:24.767 : Chapter 13

  120. 01:12:58.248 : Chapter 14

  121. 01:17:55.128 : Chapter 15

  122. 01:29:52.261 : Chapter 16


文件下载


除非特别注明,本文『庄园夫人[中文字幕].Lady.of.the.Manor.2021.1080p.BluRay.x265.10bit.DTS 5.14GB』来源于互联网机器人自动抓取,非本站原创。 浮游电影网不对本文拥有版权,如有侵犯,请联系邮箱:fuyouu#yandex.com[#换成@]投诉。我们会在15个工作日内删除。 但烦请转载时请标明出处:“本文转载于『浮游电影网』,原文地址:https://www.fuyouu.com/14738.html

评论吧骚年!

发表你的见解   

昵称*

E-mail*(建议输入,以便收到博主回复的提示邮件)

验证码*

您可以使用eMule或eMule Mod(Windows)、aMule(Win、Linux、Mac)等软件下载eD2k链接。。
eMule收藏集(.emulecollection)文件是您选中的所有链接的列表文件。eMule可以直接下载它们。
按住SHIFT键选择可以选中多个选择框。
可用文件名和大小选择器来选择文件。
文件名选择器帮您根据文件名称或后缀来选择文件。不分大小写。
符号使用:
和:空格( )、+
不包含:-
或:|
转义:一对英文引号("");
匹配开头:^
匹配结尾:$
例如:
选中所有名称中包含有“eMule”或“0.49c”字眼,但不包含有“exe”字眼的:emule|0.49c -exe
选中所有名称的开头是“eMule”,结尾是“0.49c”的:^emule 0.49c$
选中所有名称中带有“eMule 0.49c”的(必须是“eMule 0.49c”,中间没有别的字符,不能是“eMule fake 0.49c”),需要转义:"emule 0.49c"
大小选择器帮您根据文件大小选择文件。