当前位置: 首页 >> 海外电影 >> 索比堡[国语配音/中文字幕].Sobibor.2018.WEB-DL.H265.AAC 2.66GB >> 正文

索比堡[国语配音/中文字幕].Sobibor.2018.WEB-DL.H265.AAC 2.66GB

2021年10月04日 21:15:07     电影发布:来源于网络     电影分类:海外电影     评论(0)    

索比堡[国语配音/中文字幕].Sobibor.2018.WEB DL.H265.AAC 2.66GB 战争片 历史 海外电影  第1张

◎译 名 索比堡 / Sobibor

◎片 名 Собибор

◎年 代 2018

◎产 地 俄罗斯 / 德国 / 立陶宛 / 波兰

◎类 别 历史 / 战争

◎语 言 荷兰语 / 俄语 / 德语 / 波兰语

◎上映日期 2018-04-26(俄罗斯)

◎IMDb链接 https://www.imdb.com/title/tt6324614/

◎豆瓣评分 6.7/10 (1255人评价)

◎豆瓣链接 https://movie.douban.com/subject/27166413/

◎片 长 110分钟

◎导 演 康斯坦丁·哈宾斯基 Konstantin Khabensky (id:1107328)

◎编 剧 迈克尔·埃德尔斯坦 Michael Edelstein (id:1415272)

安娜·切尔纳科娃 Anna Tchernakova (id:1415273)

伊利亚·瓦西里耶夫 Ilya Vasiliev (id:1415274)

亚历山大·阿达巴什扬 Aleksandr Adabashyan (id:1025673)

◎演 员 康斯坦丁·哈宾斯基 Konstantin Khabensky (id:1107328)

克里斯多弗·兰伯特 Christopher Lambert (id:1002690)

玛利亚·科热夫尼科夫 Mariya Kozhevnikova (id:1271068)

米哈利娜·奥利尚斯卡 Michalina Olszańska (id:1359297)

菲利普·莱因哈特 Philippe Reinhardt (id:1229388)

沃尔夫冈·塞尔尼 Wolfgang Cerny (id:1411050)

菲丽丝·扬克 Felice Jankell (id:1442774)

明道加斯·帕皮尼吉斯 Mindaugas Papinigis (id:1451552)

◎标 签 二战 / 集中营 / 战争 / 俄罗斯 / 真实事件改编 / 历史 / 卐 / 2017

◎简 介

根据真实事件改编,讲述了苏联军官Alexander Pechersky的英雄事迹。故事发生在索比堡,它作为波兰4大集中营之一,是一个死亡集中营。而Alexander Pechersky却做到了一件不可能的事情:他在三周的时间,组织了一次被囚人员的反抗行动且成功逃离了大批人员。虽然有人在途中被击倒,剩下来的生者纷纷加入了反法西斯的游击队中去。

  1. ##### MediaInfo ######

  2. General

  3. Unique ID : 136501300109333914390066331284873512104 (0x66B131B2B0837DA74AB20EB7CEF984A8)

  4. Complete name : 索比堡[email protected]

  5. Format : Matroska

  6. Format version : Version 4

  7. File size : 2.66 GiB

  8. Duration : 1 h 55 min

  9. Overall bit rate : 3 308 kb/s

  10. Encoded date : UTC 2021-10-03 13:25:08

  11. Writing application : mkvmerge v61.0.0 ('So') 64-bit

  12. Writing library : libebml v1.4.2 + libmatroska v1.6.4


  13. Video

  14. ID : 1

  15. Format : HEVC

  16. Format/Info : High Efficiency Video Coding

  17. Format profile : [email protected]@High

  18. Codec ID : V_MPEGH/ISO/HEVC

  19. Duration : 1 h 55 min

  20. Bit rate : 2 991 kb/s

  21. Width : 1 920 pixels

  22. Height : 872 pixels

  23. Display aspect ratio : 2.2:1

  24. Frame rate mode : Constant

  25. Frame rate : 24.000 FPS

  26. Color space : YUV

  27. Chroma subsampling : 4:2:0

  28. Bit depth : 8 bits

  29. Bits/(Pixel*Frame) : 0.074

  30. Stream size : 2.41 GiB (90%)

  31. Default : Yes

  32. Forced : No


  33. Audio #1

  34. ID : 2

  35. Format : AAC LC

  36. Format/Info : Advanced Audio Codec Low Complexity

  37. Codec ID : A_AAC-2

  38. Duration : 1 h 55 min

  39. Bit rate : 125 kb/s

  40. Channel(s) : 2 channels

  41. Channel layout : L R

  42. Sampling rate : 44.1 kHz

  43. Frame rate : 43.066 FPS (1024 SPF)

  44. Compression mode : Lossy

  45. Delay relative to video : -125 ms

  46. Stream size : 103 MiB (4%)

  47. Language : Russian

  48. Default : Yes

  49. Forced : No


  50. Audio #2

  51. ID : 3

  52. Format : AAC LC

  53. Format/Info : Advanced Audio Codec Low Complexity

  54. Codec ID : A_AAC-2

  55. Duration : 1 h 55 min

  56. Bit rate : 192 kb/s

  57. Channel(s) : 2 channels

  58. Channel layout : L R

  59. Sampling rate : 44.1 kHz

  60. Frame rate : 43.066 FPS (1024 SPF)

  61. Compression mode : Lossy

  62. Delay relative to video : -125 ms

  63. Stream size : 157 MiB (6%)

  64. Language : Chinese

  65. Default : Yes

  66. Forced : No




复制代码



文件下载


除非特别注明,本文『索比堡[国语配音/中文字幕].Sobibor.2018.WEB-DL.H265.AAC 2.66GB』来源于互联网机器人自动抓取,非本站原创。 浮游电影网不对本文拥有版权,如有侵犯,请联系邮箱:fuyouu#yandex.com[#换成@]投诉。我们会在15个工作日内删除。 但烦请转载时请标明出处:“本文转载于『浮游电影网』,原文地址:https://www.fuyouu.com/14737.html

评论吧骚年!

发表你的见解   

昵称*

E-mail*(建议输入,以便收到博主回复的提示邮件)

验证码*

您可以使用eMule或eMule Mod(Windows)、aMule(Win、Linux、Mac)等软件下载eD2k链接。。
eMule收藏集(.emulecollection)文件是您选中的所有链接的列表文件。eMule可以直接下载它们。
按住SHIFT键选择可以选中多个选择框。
可用文件名和大小选择器来选择文件。
文件名选择器帮您根据文件名称或后缀来选择文件。不分大小写。
符号使用:
和:空格( )、+
不包含:-
或:|
转义:一对英文引号("");
匹配开头:^
匹配结尾:$
例如:
选中所有名称中包含有“eMule”或“0.49c”字眼,但不包含有“exe”字眼的:emule|0.49c -exe
选中所有名称的开头是“eMule”,结尾是“0.49c”的:^emule 0.49c$
选中所有名称中带有“eMule 0.49c”的(必须是“eMule 0.49c”,中间没有别的字符,不能是“eMule fake 0.49c”),需要转义:"emule 0.49c"
大小选择器帮您根据文件大小选择文件。