当前位置: 首页 >> 国产电影 >> 鬼吹灯之黄皮幽冢[国语配音/中文字幕].Candle.in.the.Tomb.The.Weasel.Grave.2021.1080p.WEB-DL.H265.HDR.DDP2.0 2.40GB >> 正文

鬼吹灯之黄皮幽冢[国语配音/中文字幕].Candle.in.the.Tomb.The.Weasel.Grave.2021.1080p.WEB-DL.H265.HDR.DDP2.0 2.40GB

2021年10月04日 21:08:02     电影发布:来源于网络     电影分类:国产电影     评论(0)    

鬼吹灯之黄皮幽冢[国语配音/中文字幕].Candle.in.the.Tomb.The.Weasel.Grave.2021.1080p.WEB DL.H265.HDR.DDP2.0 2.40GB 冒险片 动作片 剧情片 国产电影  第1张

◎译 名 云南虫谷 / 鬼吹灯之云南虫谷 / The Worm Valley / Candle in the Tomb: The Worm Valley / Mojin: The Worm Valley

◎年 代 2021

◎产 地 中国大陆

◎类 别 剧情 / 动作 / 冒险

◎语 言 汉语普通话

◎上映日期 2021-08-30(中国大陆)

◎IMDb链接 https://www.imdb.com/title/tt15299712/

◎豆瓣评分 6.3/10 (117126人评价)

◎豆瓣链接 https://movie.douban.com/subject/35042912/

◎集 数 16

◎导 演 费振翔 Zhenxiang Fei (id:1275235)

◎编 剧 天下霸唱 Muye Zhang (id:1340983)

◎演 员 潘粤明 Yueming Pan (id:1046960)

张雨绮 Yuqi Zhang (id:1274494)

姜超 Chao Jiang (id:1274652)

郑伊鸣 Yiming Zheng (id:1424667)

管虎 Hu Guan (id:1274919)

◎标 签 鬼吹灯 / 云南虫谷 / 盗墓 / 潘粤明 / 悬疑 / 冒险 / 国产剧 / 2021

◎简 介

网剧《云南虫谷》改编自天下霸唱小说《鬼吹灯之云南虫谷》,承接《龙岭迷窟》剧情,讲述了由胡八一(潘粤明 饰)、Shirley杨(张雨绮 饰)、王胖子(姜超 饰)组成的探险三人组查到传闻中救人性命的雮尘珠成为了古滇国献王墓的随葬品,特深入瘴疠之地探寻雮尘珠踪迹的故事。

三人依照一 张人皮地图穿过遮龙山下古滇国秘密地下水道,不料遭遇千年痋术机关,成千上万个奴隶制成的“痋俑”像炸弹一样倒悬在洞顶,当它们接二连三地落入水中,引发的却是一连串的弱肉强食,一物降一物;丛林中夜现“SOS”电码,是曾经葬身此地的飞虎队队员怨魂作祟,还是献王的大祭师设下的迷局……

◎获奖情况 (共1项)

第7届豆瓣电影年度榜单 (2020)

最值得期待的剧集(提名)

  1. ##### MediaInfo ######

  2. General

  3. Complete name : 鬼吹灯之黄皮幽冢.Candle.in.th[email protected]BBQDDQ.COM.mp4

  4. Format : MPEG-4

  5. Format profile : Base Media

  6. Codec ID : isom (isom/iso2/mp41)

  7. File size : 2.40 GiB

  8. Duration : 1 h 16 min

  9. Overall bit rate mode : Variable

  10. Overall bit rate : 4 462 kb/s

  11. Writing application : OurTV Multimedia Platform


  12. Video

  13. ID : 1

  14. Format : HEVC

  15. Format/Info : High Efficiency Video Coding

  16. Format profile : Main [email protected]@Main

  17. HDR format : SMPTE ST 2086, HDR10 compatible

  18. Codec ID : hev1

  19. Codec ID/Info : High Efficiency Video Coding

  20. Duration : 1 h 16 min

  21. Source duration : 1 h 16 min

  22. Bit rate : 3 941 kb/s

  23. Width : 1 920 pixels

  24. Height : 716 pixels

  25. Display aspect ratio : 2.682

  26. Frame rate mode : Variable

  27. Frame rate : 50.000 FPS

  28. Minimum frame rate : 49.972 FPS

  29. Maximum frame rate : 50.028 FPS

  30. Color space : YUV

  31. Chroma subsampling : 4:2:0

  32. Bit depth : 10 bits

  33. Bits/(Pixel*Frame) : 0.057

  34. Stream size : 2.12 GiB (88%)

  35. Source stream size : 2.12 GiB (88%)

  36. Color range : Limited

  37. Color primaries : BT.2020

  38. Transfer characteristics : PQ

  39. Matrix coefficients : BT.2020 non-constant

  40. Mastering display color primaries : Display P3

  41. Mastering display luminance : min: 0.0005 cd/m2, max: 500 cd/m2

  42. mdhd_Duration : 4616142

  43. Codec configuration box : hvcC


  44. Audio #1

  45. ID : 2

  46. Format : E-AC-3

  47. Format/Info : Enhanced AC-3

  48. Commercial name : Dolby Digital Plus

  49. Codec ID : ec-3

  50. Duration : 1 h 16 min

  51. Bit rate mode : Constant

  52. Bit rate : 256 kb/s

  53. Channel(s) : 2 channels

  54. Channel layout : L R

  55. Sampling rate : 48.0 kHz

  56. Frame rate : 31.250 FPS (1536 SPF)

  57. Compression mode : Lossy

  58. Stream size : 141 MiB (6%)

  59. Title : 国语DDP2.0

  60. Language : Chinese

  61. Service kind : Complete Main

  62. Default : Yes

  63. Alternate group : 1


  64. Audio #2

  65. ID : 3

  66. Format : AAC LC

  67. Format/Info : Advanced Audio Codec Low Complexity

  68. Codec ID : mp4a-40-2

  69. Duration : 1 h 16 min

  70. Bit rate mode : Variable

  71. Bit rate : 253 kb/s

  72. Maximum bit rate : 256 kb/s / 256 kb/s

  73. Channel(s) : 2 channels

  74. Channel layout : L R

  75. Sampling rate : 48.0 kHz

  76. Frame rate : 46.875 FPS (1024 SPF)

  77. Compression mode : Lossy

  78. Stream size : 139 MiB (6%)

  79. Title : 国语AAC2.0

  80. Language : Chinese

  81. Default : No

  82. Alternate group : 1




复制代码



文件下载


除非特别注明,本文『鬼吹灯之黄皮幽冢[国语配音/中文字幕].Candle.in.the.Tomb.The.Weasel.Grave.2021.1080p.WEB-DL.H265.HDR.DDP2.0 2.40GB』来源于互联网机器人自动抓取,非本站原创。 浮游电影网不对本文拥有版权,如有侵犯,请联系邮箱:fuyouu#yandex.com[#换成@]投诉。我们会在15个工作日内删除。 但烦请转载时请标明出处:“本文转载于『浮游电影网』,原文地址:https://www.fuyouu.com/14732.html

评论吧骚年!

发表你的见解   

昵称*

E-mail*(建议输入,以便收到博主回复的提示邮件)

验证码*

您可以使用eMule或eMule Mod(Windows)、aMule(Win、Linux、Mac)等软件下载eD2k链接。。
eMule收藏集(.emulecollection)文件是您选中的所有链接的列表文件。eMule可以直接下载它们。
按住SHIFT键选择可以选中多个选择框。
可用文件名和大小选择器来选择文件。
文件名选择器帮您根据文件名称或后缀来选择文件。不分大小写。
符号使用:
和:空格( )、+
不包含:-
或:|
转义:一对英文引号("");
匹配开头:^
匹配结尾:$
例如:
选中所有名称中包含有“eMule”或“0.49c”字眼,但不包含有“exe”字眼的:emule|0.49c -exe
选中所有名称的开头是“eMule”,结尾是“0.49c”的:^emule 0.49c$
选中所有名称中带有“eMule 0.49c”的(必须是“eMule 0.49c”,中间没有别的字符,不能是“eMule fake 0.49c”),需要转义:"emule 0.49c"
大小选择器帮您根据文件大小选择文件。