当前位置: 首页 >> 国产电影 >> 盛夏未来[国语配音/中文字幕].Upcoming.Summer.2021.2160p.WEB-DL.H265.DDP5.1.Atmos 4.15GB >> 正文

盛夏未来[国语配音/中文字幕].Upcoming.Summer.2021.2160p.WEB-DL.H265.DDP5.1.Atmos 4.15GB

2021年10月04日 21:05:47     电影发布:来源于网络     电影分类:国产电影     评论(0)    

盛夏未来[国语配音/中文字幕].Upcoming.Summer.2021.2160p.WEB DL.H265.DDP5.1.Atmos 4.15GB 剧情片 国产电影  第1张

◎译 名 盛夏未来 / 世纪末的未来 / 未来的未来 / Upcoming Summer

◎年 代 2021

◎产 地 中国大陆

◎类 别 剧情

◎语 言 汉语普通话

◎上映日期 2021-07-30(中国大陆)

◎IMDb链接 https://www.imdb.com/title/tt13575838/

◎豆瓣评分 7.3/10 (134947人评价)

◎豆瓣链接 https://movie.douban.com/subject/35158124/

◎片 长 115分钟

◎导 演 陈正道 Leste Chen (id:1189801)

◎编 剧 沈洋 Yang Shen (id:1396281)

詹晨 Chen Zhan (id:1448027)

◎演 员 张子枫 Zifeng Zhang (id:1274254)

吴磊 Leo Wu (id:1276150)

郝蕾 Lei Hao (id:1042568)

祖峰 Feng Zu (id:1313650)

柳小海 Xiaohai Liu (id:1318196)

刘丹 Dan Liu (id:1311659)

周铁 Tie Zhou (id:1353139)

仵晓迪 (id:1461086)

王中军 Zhongjun Wang (id:1276036)

肖飞 Fei Xiao (id:1349513)

支颖 (id:1461191)

焦宏奋 Hongfen Jiao (id:1412277)

傅立文 (id:1461192)

王中磊 Zhonglei Wang (id:1276037)

李捷 Jie Li (id:1403835)

郑志昊 Zhihao Zheng (id:1397531)

段梦娜 (id:1461193)

黄鹤城 (id:1426293)

金传扬 (id:1461194)

姜皎辉 (id:1461195)

周浩 Hao Zhou (id:1442180)

张叶焙 (id:1461196)

李树峰 (id:1461197)

王勤 (id:1461198)

张倩倩 (id:1461199)

沈李立羽 (id:1461200)

彭鸣宇 Mingyu Peng (id:1446113)

向利祥 (id:1461201)

(id:1461202)

傅若清 Ruoqing Fu (id:1417588)

尚杨 (id:1461203)

史晓晔 Tina Shi (id:1424801)

杨庭恺 Bernard Yang (id:1443208)

黎卓烽 (id:1461204)

田欢 (id:1461205)

黄帆顺 (id:1461206)

许建海 Jianhai Xu (id:1384186)

毛超 (id:1461207)

黄鹤敏 (id:1461208)

金鑫 (id:1461209)

王倩婷 Tina C. Wang (id:1431682)

林志坚 Charlie Lam (id:1304405)

齐小东 Xiaodong Qi (id:1436224)

罗顺福 Shunfu Luo (id:1362884)

沈展志 Chan-Chih Shen (id:1397768)

叶竹真 Jewel Yeh (id:1397769)

赵楠 Nan Zhao (id:1325307)

杨江 Jiang Yang (id:1351381)

施雯 (id:1461210)

于淑 (id:1461211)

◎标 签 青春 / 张子枫 / 吴磊 / 爱情 / 2021 / 剧情 / 中国大陆 / 陈正道

◎简 介

即将高考的陈辰(张子枫 饰)因发现妈妈(郝蕾 饰)与王叔叔(祖峰 饰)的“外遇”而心情低落,却在这时与校园网红郑宇星(吴磊 饰)因为一个谎言意外相识。两人在未解的青春里,携手面对成长的种种难题,勇敢地面对真实的自己,亦在这个夏天过去后,见证了彼此的成长和蜕变……

  1. ##### MediaInfo ######

  2. General

  3. Unique ID : 4890831966226341989334897264639364739 (0x3ADF0A21D5508C9B3B62FEE39884E83)

  4. Complete name : 盛夏未来[email protected]Q.COM.mkv

  5. Format : Matroska

  6. Format version : Version 4

  7. File size : 4.15 GiB

  8. Duration : 1 h 54 min

  9. Overall bit rate : 5 198 kb/s

  10. Encoded date : UTC 2021-10-03 04:46:23

  11. Writing application : mkvmerge v51.0.0 ('I Wish') 64-bit

  12. Writing library : libebml v1.4.0 + libmatroska v1.6.2


  13. Video

  14. ID : 1

  15. Format : HEVC

  16. Format/Info : High Efficiency Video Coding

  17. Format profile : [email protected]@Main

  18. Codec ID : V_MPEGH/ISO/HEVC

  19. Duration : 1 h 54 min

  20. Bit rate : 4 558 kb/s

  21. Width : 3 840 pixels

  22. Height : 2 160 pixels

  23. Display aspect ratio : 16:9

  24. Frame rate mode : Constant

  25. Frame rate : 24.000 FPS

  26. Color space : YUV

  27. Chroma subsampling : 4:2:0

  28. Bit depth : 8 bits

  29. Bits/(Pixel*Frame) : 0.023

  30. Stream size : 3.64 GiB (88%)

  31. Default : Yes

  32. Forced : No


  33. Audio #1

  34. ID : 2

  35. Format : E-AC-3 JOC

  36. Format/Info : Enhanced AC-3 with Joint Object Coding

  37. Commercial name : Dolby Digital Plus with Dolby Atmos

  38. Codec ID : A_EAC3

  39. Duration : 1 h 54 min

  40. Bit rate mode : Constant

  41. Bit rate : 448 kb/s

  42. Channel(s) : 6 channels

  43. Channel layout : L R C LFE Ls Rs

  44. Sampling rate : 48.0 kHz

  45. Frame rate : 31.250 FPS (1536 SPF)

  46. Compression mode : Lossy

  47. Stream size : 367 MiB (9%)

  48. Language : Chinese

  49. Service kind : Complete Main

  50. Default : Yes

  51. Forced : No

  52. Complexity index : 16

  53. Number of dynamic objects : 15

  54. Bed channel count : 1 channel

  55. Bed channel configuration : LFE


  56. Audio #2

  57. ID : 3

  58. Format : AAC LC

  59. Format/Info : Advanced Audio Codec Low Complexity

  60. Codec ID : A_AAC-2

  61. Duration : 1 h 54 min

  62. Bit rate : 192 kb/s

  63. Channel(s) : 2 channels

  64. Channel layout : L R

  65. Sampling rate : 44.1 kHz

  66. Frame rate : 43.066 FPS (1024 SPF)

  67. Compression mode : Lossy

  68. Stream size : 155 MiB (4%)

  69. Language : Chinese

  70. Default : No

  71. Forced : No




复制代码



文件下载


除非特别注明,本文『盛夏未来[国语配音/中文字幕].Upcoming.Summer.2021.2160p.WEB-DL.H265.DDP5.1.Atmos 4.15GB』来源于互联网机器人自动抓取,非本站原创。 浮游电影网不对本文拥有版权,如有侵犯,请联系邮箱:fuyouu#yandex.com[#换成@]投诉。我们会在15个工作日内删除。 但烦请转载时请标明出处:“本文转载于『浮游电影网』,原文地址:https://5.189.174.242/14731.html

评论吧骚年!

发表你的见解   

昵称*

E-mail*(建议输入,以便收到博主回复的提示邮件)

验证码*

您可以使用eMule或eMule Mod(Windows)、aMule(Win、Linux、Mac)等软件下载eD2k链接。。
eMule收藏集(.emulecollection)文件是您选中的所有链接的列表文件。eMule可以直接下载它们。
按住SHIFT键选择可以选中多个选择框。
可用文件名和大小选择器来选择文件。
文件名选择器帮您根据文件名称或后缀来选择文件。不分大小写。
符号使用:
和:空格( )、+
不包含:-
或:|
转义:一对英文引号("");
匹配开头:^
匹配结尾:$
例如:
选中所有名称中包含有“eMule”或“0.49c”字眼,但不包含有“exe”字眼的:emule|0.49c -exe
选中所有名称的开头是“eMule”,结尾是“0.49c”的:^emule 0.49c$
选中所有名称中带有“eMule 0.49c”的(必须是“eMule 0.49c”,中间没有别的字符,不能是“eMule fake 0.49c”),需要转义:"emule 0.49c"
大小选择器帮您根据文件大小选择文件。