当前位置: 首页 >> 欧美电影 >> 空中大灌篮:新传奇[双语字幕].Space.Jam.A.New.Legacy.2021.1080p.BluRay.DD5.1.x265 6.82GB >> 正文

空中大灌篮:新传奇[双语字幕].Space.Jam.A.New.Legacy.2021.1080p.BluRay.DD5.1.x265 6.82GB

2021年10月04日 20:59:08     电影发布:来源于网络     电影分类:欧美电影     评论(0)    

空中大灌篮:新传奇[双语字幕].Space.Jam.A.New.Legacy.2021.1080p.BluRay.DD5.1.x265 6.82GB 运动 动画片 喜剧片 欧美电影  第1张

◎译 名 空中大灌篮:新传奇 / 太空也入樽:改朝换代(港) / 太空也入樽2(港) / 怪物奇兵 全新世代(台) / 空中大灌篮2:新传奇 / 怪物奇兵2 / 宇宙大灌篮2 / 宇宙大灌篮:新传承 / Space Jam 2008 / Space Jam 2: A Jogada Continua / Space Jam Twenty 16

◎片 名 Space Jam: A New Legacy

◎年 代 2021

◎产 地 美国

◎类 别 喜剧 / 动画 / 运动

◎语 言 英语

◎上映日期 2021-07-16(美国)

◎IMDb链接 https://www.imdb.com/title/tt3554046/

◎豆瓣评分 6.3/10 (9588人评价)

◎豆瓣链接 https://movie.douban.com/subject/25834936/

◎片 长 120分钟

◎导 演 马尔科姆·D·李 Malcolm D. Lee (id:1014323)

◎编 剧 朱埃尔·泰勒 Juel Taylor (id:1405274)

特伦斯·南斯 Terence Nance (id:1336173)

蒂莫西·哈里斯 Timothy Harris (id:1010039)

史蒂夫·鲁德尼克 Steve Rudnick (id:1447594)

赫舍尔·魏因格罗德 Herschel Weingrod (id:1042057)

莱奥·本韦努蒂 Leo Benvenuti (id:1303189)

阿尔弗雷多·博泰洛 Alfredo Botello (id:1349924)

安德鲁·道奇 Andrew Dodge (id:1341234)

查克·琼斯 Chuck Jones (id:1054468)

林诣彬 Justin Lin (id:1290066)

威利?埃伯索尔 Willie Ebersol (id:1414027)

基南·库格勒 Keenan Coogler (id:1459637)

◎演 员 勒布朗·詹姆斯 LeBron James (id:1016622)

赞达亚 Zendaya (id:1325576)

吉姆·卡明斯 Jim Cummings (id:1040525)

索尼夸·马丁-格林 Sonequa Martin-Green (id:1327556)

唐·钱德尔 Don Cheadle (id:1053573)

弗雷德·塔特西奥 Fred Tatasciore (id:1320585)

特蕾丝·麦克尼尔 Tress MacNeille (id:1120584)

马丁·科勒巴 Martin Klebba (id:1010683)

加布里埃尔·伊格莱西亚斯 Gabriel Iglesias (id:1009632)

豪莎·罗克莫雷 Xosha Roquemore (id:1311904)

艾瑞克·鲍扎 Eric Bauza (id:1347752)

鲍伯·伯根 Bob Bergen (id:1065267)

杰夫·伯格曼 Jeff Bergman (id:1009935)

坎迪·米洛 Candi Milo (id:1121625)

克里斯·戴维斯 Khris Davis (id:1390624)

凯蒂·麦克凯布 Katie McCabe (id:1428179)

斯凯勒·拜布尔 Skyler Bible (id:1405038)

克里斯·保罗 Chris Paul (id:1259929)

Peter Cornell (id:1235500)

克莱·汤普森 Klay Thompson (id:1372896)

德雷蒙德·格林 Draymond Green (id:1372897)

Hassan Said Hassan Said (id:1191215)

Erin Flannery Erin Flannery (id:1455553)

德里克?吉尔伯特 Derrick Gilbert (id:1414026)

G·莱恩·希尔曼 G. Lane Hillman (id:1241302)

卡桑德拉·斯塔尔 Cassandra Starr (id:1336662)

瑞恩·库格勒 Ryan Coogler (id:1326531)

汉斯·季默 Hans Zimmer (id:1054386)

萨尔瓦托雷·托蒂诺 Salvatore Totino (id:1443962)

◎标 签 篮球 / 动画 / 体育 / 美国 / 喜剧 / 2021 / 运动 / 电影

◎简 介

故事讲述勒布朗与他的小儿子多姆被人工智能困在了“华纳兄弟电影宇宙”虚拟空间,为了能安全回家,他必须率兔八哥、罗拉兔和那些不守规矩的乐一通卡通,战胜一支全明星篮球队。这场对决是勒布朗人生的最大挑战,也将重新定义他与儿子间的关系,并让勒布朗领悟到“做自己”的真谛;乐一通的小伙伴们则要打破陈规,超常发挥自己的独特技能,令勒布朗都刮目相看。然而他们面对的,是一群前所未见、所向披靡的人工智能强化型对手“末日狂徒队”,勒布朗和乐一通们真的能成功击败他们吗?

  1. ##### MediaInfo ######

  2. General

  3. Unique ID : 141841532952880905267901359119564684413 (0x6AB5AF8154907CD030EE9106C1A23C7D)

  4. Complete name : [email protected]BBQDDQ.COM.mkv

  5. Format : Matroska

  6. Format version : Version 4

  7. File size : 6.82 GiB

  8. Duration : 1 h 55 min

  9. Overall bit rate : 8 447 kb/s

  10. Movie name : Space Jam A New Legacy 2021 1080p BluRay DD5.1 [email protected]

  11. Encoded date : UTC 2021-10-03 02:32:06

  12. Writing application : mkvmerge v38.0.0 ('The Silent Type') 64-bit

  13. Writing library : libebml v1.3.9 + libmatroska v1.5.2


  14. Video

  15. ID : 1

  16. Format : HEVC

  17. Format/Info : High Efficiency Video Coding

  18. Format profile : Main [email protected]@High

  19. Codec ID : V_MPEGH/ISO/HEVC

  20. Duration : 1 h 55 min

  21. Bit rate : 7 702 kb/s

  22. Width : 1 920 pixels

  23. Height : 1 036 pixels

  24. Display aspect ratio : 1.85:1

  25. Frame rate mode : Constant

  26. Frame rate : 23.976 (24000/1001/53354) FPS

  27. Color space : YUV

  28. Chroma subsampling : 4:2:0

  29. Bit depth : 10 bits

  30. Bits/(Pixel*Frame) : 0.161

  31. Stream size : 6.21 GiB (91%)

  32. Title : @HDSky

  33. Writing library : x265 - H.265/HEVC codec

  34. Default : Yes

  35. Forced : No


  36. Audio

  37. ID : 2

  38. Format : AC-3

  39. Format/Info : Audio Coding 3

  40. Commercial name : Dolby Digital

  41. Codec ID : A_AC3

  42. Duration : 1 h 55 min

  43. Bit rate mode : Constant

  44. Bit rate : 640 kb/s

  45. Channel(s) : 6 channels

  46. Channel layout : L R C LFE Ls Rs

  47. Sampling rate : 48.0 kHz

  48. Frame rate : 31.250 FPS (1536 SPF)

  49. Compression mode : Lossy

  50. Stream size : 529 MiB (8%)

  51. Title : English

  52. Language : English

  53. Service kind : Complete Main

  54. Default : Yes

  55. Forced : No


  56. Text #1

  57. ID : 3

  58. Format : PGS

  59. Muxing mode : zlib

  60. Codec ID : S_HDMV/PGS

  61. Codec ID/Info : Picture based subtitle format used on BDs/HD-DVDs

  62. Duration : 1 h 55 min

  63. Bit rate : 52.0 kb/s

  64. Count of elements : 4852

  65. Stream size : 42.9 MiB (1%)

  66. Title : ENG

  67. Language : English

  68. Default : Yes

  69. Forced : No


  70. Text #2

  71. ID : 4

  72. Format : PGS

  73. Muxing mode : zlib

  74. Codec ID : S_HDMV/PGS

  75. Codec ID/Info : Picture based subtitle format used on BDs/HD-DVDs

  76. Duration : 1 h 55 min

  77. Bit rate : 32.1 kb/s

  78. Count of elements : 2683

  79. Stream size : 26.4 MiB (0%)

  80. Title : CHS

  81. Language : Chinese

  82. Default : No

  83. Forced : No


  84. Text #3

  85. ID : 5

  86. Format : PGS

  87. Muxing mode : zlib

  88. Codec ID : S_HDMV/PGS

  89. Codec ID/Info : Picture based subtitle format used on BDs/HD-DVDs

  90. Duration : 1 h 55 min

  91. Bit rate : 33.3 kb/s

  92. Count of elements : 2683

  93. Stream size : 27.4 MiB (0%)

  94. Title : CHT

  95. Language : Chinese

  96. Default : No

  97. Forced : No


  98. Text #4

  99. ID : 6

  100. Format : PGS

  101. Muxing mode : zlib

  102. Codec ID : S_HDMV/PGS

  103. Codec ID/Info : Picture based subtitle format used on BDs/HD-DVDs

  104. Duration : 1 h 55 min

  105. Bit rate : 56.4 kb/s

  106. Count of elements : 2687

  107. Stream size : 46.4 MiB (1%)

  108. Title : CHS&ENG

  109. Language : Chinese

  110. Default : No

  111. Forced : No


  112. Text #5

  113. ID : 7

  114. Format : PGS

  115. Muxing mode : zlib

  116. Codec ID : S_HDMV/PGS

  117. Codec ID/Info : Picture based subtitle format used on BDs/HD-DVDs

  118. Duration : 1 h 55 min

  119. Bit rate : 57.7 kb/s

  120. Count of elements : 2687

  121. Stream size : 47.5 MiB (1%)

  122. Title : CHT&ENG

  123. Language : Chinese

  124. Default : No

  125. Forced : No


  126. Menu

  127. 00:00:00.000 : en:Chapter 01

  128. 00:08:57.036 : en:Chapter 02

  129. 00:14:28.493 : en:Chapter 03

  130. 00:19:20.993 : en:Chapter 04

  131. 00:25:11.176 : en:Chapter 05

  132. 00:34:42.539 : en:Chapter 06

  133. 00:42:10.695 : en:Chapter 07

  134. 00:50:33.864 : en:Chapter 08

  135. 00:56:00.732 : en:Chapter 09

  136. 01:03:57.459 : en:Chapter 10

  137. 01:08:39.824 : en:Chapter 11

  138. 01:17:40.865 : en:Chapter 12

  139. 01:24:07.209 : en:Chapter 13

  140. 01:31:58.888 : en:Chapter 14

  141. 01:39:33.050 : en:Chapter 15

  142. 01:48:15.864 : en:Chapter 16




复制代码



文件下载


除非特别注明,本文『空中大灌篮:新传奇[双语字幕].Space.Jam.A.New.Legacy.2021.1080p.BluRay.DD5.1.x265 6.82GB』来源于互联网机器人自动抓取,非本站原创。 浮游电影网不对本文拥有版权,如有侵犯,请联系邮箱:fuyouu#yandex.com[#换成@]投诉。我们会在15个工作日内删除。 但烦请转载时请标明出处:“本文转载于『浮游电影网』,原文地址:https://www.fuyouu.com/14730.html

评论吧骚年!

发表你的见解   

昵称*

E-mail*(建议输入,以便收到博主回复的提示邮件)

验证码*

您可以使用eMule或eMule Mod(Windows)、aMule(Win、Linux、Mac)等软件下载eD2k链接。。
eMule收藏集(.emulecollection)文件是您选中的所有链接的列表文件。eMule可以直接下载它们。
按住SHIFT键选择可以选中多个选择框。
可用文件名和大小选择器来选择文件。
文件名选择器帮您根据文件名称或后缀来选择文件。不分大小写。
符号使用:
和:空格( )、+
不包含:-
或:|
转义:一对英文引号("");
匹配开头:^
匹配结尾:$
例如:
选中所有名称中包含有“eMule”或“0.49c”字眼,但不包含有“exe”字眼的:emule|0.49c -exe
选中所有名称的开头是“eMule”,结尾是“0.49c”的:^emule 0.49c$
选中所有名称中带有“eMule 0.49c”的(必须是“eMule 0.49c”,中间没有别的字符,不能是“eMule fake 0.49c”),需要转义:"emule 0.49c"
大小选择器帮您根据文件大小选择文件。