当前位置: 首页 >> 欧美电影 >> 变脸[中文字幕].Face.Off.1997.Special.Collectors.Edition.1080p.BluRay.x265.10bit.DD.5.1.Audio 8.37GB >> 正文

变脸[中文字幕].Face.Off.1997.Special.Collectors.Edition.1080p.BluRay.x265.10bit.DD.5.1.Audio 8.37GB

2021年10月04日 20:53:40     电影发布:来源于网络     电影分类:欧美电影     评论(0)    

变脸[中文字幕].Face.Off.1997.Special.Collectors.Edition.1080p.BluRay.x265.10bit.DD.5.1.Audio 8.37GB 科幻片 犯罪片 惊悚片 动作片 欧美电影  第1张

◎译 名 变脸 / 夺面双雄(港) / 夺命双雄

◎片 名 Face/Off

◎年 代 1997

◎产 地 美国

◎类 别 动作 / 科幻 / 惊悚 / 犯罪

◎语 言 英语 / 拉丁语

◎上映日期 1997-06-27(美国)

◎IMDb链接 https://www.imdb.com/title/tt0119094/

◎豆瓣评分 8.5/10 (345762人评价)

◎豆瓣链接 https://movie.douban.com/subject/1292659/

◎片 长 138分钟

◎导 演 吴宇森 John Woo (id:1027853)

◎编 剧 麦克·韦柏 Mike Werb (id:1300707)

迈克尔·科拉里 Michael Colleary (id:1281048)

◎演 员 约翰·特拉沃尔塔 John Travolta (id:1054426)

尼古拉斯·凯奇 Nicolas Cage (id:1054455)

琼·艾伦 Joan Allen (id:1025215)

亚历桑德罗·尼沃拉 Alessandro Nivola (id:1009310)

吉娜·格申 Gina Gershon (id:1017913)

多米尼克·斯万 Dominique Swain (id:1025191)

尼克·卡萨维蒂 Nick Cassavetes (id:1017986)

哈威·普雷斯内尔 Harve Presnell (id:1049898)

科鲁姆·费奥瑞 Colm Feore (id:1022706)

约翰·卡洛·林奇 John Carroll Lynch (id:1025224)

希·庞德 CCH Pounder (id:1013803)

罗伯特·维斯多姆 Robert Wisdom (id:1160892)

赵牡丹 Margaret Cho (id:1036518)

詹姆斯·丹顿 James Denton (id:1085644)

马特·罗斯 Matt Ross (id:1014057)

克里斯·鲍尔 Chris Bauer (id:1067002)

迈尔斯·杰弗里 Myles Jeffrey (id:1107086)

大卫·麦克库利 David McCurley (id:1360848)

托马斯·简 Thomas Jane (id:1031816)

汤米·弗拉纳根 Tommy Flanagan (id:1081424)

达纳·史密斯 Dana Smith (id:1360849)

罗密·温莎 Romy Windsor (id:1360852)

保罗?希普 Paul Hipp (id:1054952)

柯克·鲍兹 Kirk Baltz (id:1050060)

劳伦·辛克莱尔 Lauren Sinclair (id:1156505)

本·里德 Ben Reed (id:1147291)

丽莎·博伊尔 Lisa Boyle (id:1069340)

琳达·霍夫曼 Linda Hoffman (id:1360854)

丹尼·马斯特森 Danny Masterson (id:1031859)

迈克尔·罗查 Michael Rocha (id:1360856)

麦克·韦柏 Mike Werb (id:1300707)

梅根·保罗 Megan Paul (id:1294115)

诺姆·卡普顿 Norm Compton (id:1281105)

乔纳森·D.克兰 Jonathan D. Krane (id:1276659)

麦克·韦柏 Mike Werb (id:1300707)

迈克尔·科拉里 Michael Colleary (id:1281048)

迈克尔·道格拉斯 Michael Douglas (id:1053620)

Steven Reuther Steven Reuther (id:1295488)

大卫·佩穆特 David Permut (id:1294308)

约翰·鲍威尔 John Powell (id:1050025)

奥利弗·伍德 Oliver Wood (id:1382971)

克里斯蒂安·瓦格纳 Christian Wagner (id:1300243)

史蒂夫·肯珀 Steven Kemper (id:1288378)

明迪·马丁 Mindy Marin (id:1291003)

加雷特·刘易斯 Garrett Lewis (id:1289951)

艾伦·米罗伊尼克 Ellen Mirojnick (id:1010099)

Brian Penikas Brian Penikas (id:1294253)

肖恩·史密斯 Shaun Smith (id:1297935)

苏珊·V·卡利诺夫斯基 Susan V. Kalinowski (id:1288039)

Allen Weisinger Allen Weisinger (id:1300632)

托马斯·弗洛茨 Thomas Floutz (id:1283888)

米歇尔·布勒 Michelle Bühler (id:1279844)

David Atherton David Atherton (id:1277533)

William H. Burton William H. Burton (id:1279712)

博伊德·谢尔米斯 Boyd Shermis (id:1297440)

Mark Tait Lewis Mark Tait Lewis (id:1289972)

Derek Spears Derek Spears (id:1298123)

理查德·E·霍兰德尔 Richard E. Hollander (id:1286808)

◎标 签 尼古拉斯·凯奇 / 吴宇森 / 动作 / 美国 / 犯罪 / 经典 / 科幻 / 电影

◎简 介

凯斯特(尼古拉斯?凯奇 Nicolas Cage 饰)是一个恐怖分子,他本想杀死探员西恩(约翰?特拉沃塔 John Travolta 饰),却误杀了西恩的儿子,西恩更与凯斯特结下不共戴天之仇。在逮捕凯斯特归案之后,他以为可以划上句号,却得知凯斯特已经把一枚毒气炸弹投放在某个人群密集的角落。

为了查出炸弹地点,西恩决定利用整形手术,将昏迷中的凯斯特的脸换在自己身上,去假扮凯斯特身份套出他弟弟说出真相。这件事属于FBI高度机密,只有寥寥几人知情。

凯斯特醒来,此时他有着西恩的面相。于是他决定将计就计,将知情人杀掉之后,他就变成了西恩……

◎获奖情况 (共1项)

第70届奥斯卡金像奖 (1998)

最佳音效剪辑(提名)

  1. ##### MediaInfo ######

  2. General

  3. Unique ID : 173924939641440233208907176767157156833 (0x82D8B9953786E5CBAF1F9C949BC3BBE1)

  4. Complete name : Face.Off.1997.Specia[email protected]BBQDDQ.COM.mkv

  5. Format : Matroska

  6. Format version : Version 4

  7. File size : 8.37 GiB

  8. Duration : 2 h 18 min

  9. Overall bit rate : 8 623 kb/s

  10. Encoded date : UTC 2021-10-01 16:43:18

  11. Writing application : mkvmerge v61.0.0 ('So') 64-bit

  12. Writing library : libebml v1.4.2 + libmatroska v1.6.4


  13. Video

  14. ID : 1

  15. Format : HEVC

  16. Format/Info : High Efficiency Video Coding

  17. Format profile : Main [email protected]@Main

  18. Codec ID : V_MPEGH/ISO/HEVC

  19. Duration : 2 h 18 min

  20. Bit rate : 7 069 kb/s

  21. Width : 1 920 pixels

  22. Height : 804 pixels

  23. Display aspect ratio : 2.40:1

  24. Frame rate mode : Constant

  25. Frame rate : 23.976 (24000/1001/53354) FPS

  26. Color space : YUV

  27. Chroma subsampling : 4:2:0

  28. Bit depth : 10 bits

  29. Bits/(Pixel*Frame) : 0.191

  30. Stream size : 6.86 GiB (82%)

  31. Title : face.off.1997

  32. Writing library : x265 3.5+2-g2b25c9ba0+45:[Windows][GCC 10.2.0][64 bit] Yuuki 10bit+8bit+12bit

  33. Encoding settings : rc=crf / crf=17.0000 / qcomp=0.70 / qpstep=4 / stats-write=0 / stats-read=0 / no-lossless / no-cu-lossless / aq-mode=3 / aq-strength=0.90 / cbqpoffs=0 / crqpoffs=0 / ipratio=1.40 / pbratio=1.30 / psy-rd=2.00 / psy-rdoq=0.00 / deblock=0:0 / ref=6 / limit-refs=1 / no-limit-modes / bframes=8 / b-adapt=2 / bframe-bias=0 / b-pyramid / b-intra / weightp / weightb / min-keyint=24 / max-keyint=240 / rc-lookahead=24 / gop-lookahead=0 / NTMzNTQ=uuDQuD2mJt9fsCf / scenecut=40 / hist-scenecut=0 / radl=0 / max-cu-size=64 / min-cu-size=8 / me=3 / subme=7 / merange=48 / rdoq-level=0 / rd=4 / rdpenalty=0 / dynamic-rd=0.00 / no-rd-refine / ----- / cutree / sao / no-rect / no-amp / no-open-gop / wpp / no-pmode / no-pme / no-psnr / no-ssim / nr-intra=0 / nr-inter=0 / no-constrained-intra / no-strong-intra-smoothing / max-tu-size=32 / tu-inter-depth=1 / tu-intra-depth=1 / limit-tu=0 / qg-size=32 / qpmax=69 / qpmin=0 / ----- / cpuid=533541049583 / frame-threads=5 / numa-pools=+ / log-level=2 / input-csp=1 / input-res=1920x804 / interlace=0 / level-idc=0 / high-tier=1 / uhd-bd=0 / no-allow-non-conformance / no-repeat-headers / aud / no-hrd / info / hash=0 / no-temporal-layers / lookahead-slices=0 / no-splice / no-intra-refresh / no-ssim-rd / signhide / no-tskip / max-merge=3 / temporal-mvp / no-frame-dup / no-hme / no-analyze-src-pics / no-sao-non-deblock / selective-sao=4 / early-skip / rskip / no-fast-intra / no-tskip-fast / no-splitrd-skip / zone-count=0 / no-strict-cbr / no-rc-grain / no-const-vbv / sar=0 / overscan=0 / videoformat=5 / range=0 / colorprim=2 / transfer=2 / colormatrix=2 / chromaloc=0 / display-window=0 / cll=0,0 / min-luma=0 / max-luma=1023 / log2-max-poc-lsb=8 / vui-timing-info / vui-hrd-info / slices=1 / no-opt-qp-pps / no-opt-ref-list-length-pps / no-multi-pass-opt-rps / scenecut-bias=0.05 / hist-threshold=0.03 / no-opt-cu-delta-qp / no-aq-motion / no-hdr10 / no-hdr10-opt / no-dhdr10-opt / no-idr-recovery-sei / analysis-reuse-level=0 / analysis-save-reuse-level=0 / analysis-load-reuse-level=0 / scale-factor=0 / refine-intra=0 / refine-inter=0 / refine-mv=1 / refine-ctu-distortion=0 / no-limit-sao / ctu-info=0 / no-lowpass-dct / refine-analysis-type=0 / copy-pic=1 / max-ausize-factor=1.0 / no-dynamic-refine / no-single-sei / no-hevc-aq / no-svt / no-field / qp-adaptation-range=1.00 / scenecut-aware-qp=0conformance-window-offsets / right=0 / bottom=0 / NTMzNTQ= / decoder-max-rate=0 / no-vbv-live-multi-pass

  34. Language : English

  35. Default : Yes

  36. Forced : No


  37. Audio

  38. ID : 2

  39. Format : DTS

  40. Format/Info : Digital Theater Systems

  41. Codec ID : A_DTS

  42. Duration : 2 h 18 min

  43. Bit rate mode : Constant

  44. Bit rate : 1 510 kb/s

  45. Channel(s) : 6 channels

  46. Channel layout : C L R Ls Rs LFE

  47. Sampling rate : 48.0 kHz

  48. Frame rate : 93.750 FPS (512 SPF)

  49. Bit depth : 24 bits

  50. Compression mode : Lossy

  51. Stream size : 1.47 GiB (18%)

  52. Title : en

  53. Default : Yes

  54. Forced : No


  55. Text #1

  56. ID : 3

  57. ID in the original source medium : 4608 (0x1200)

  58. Format : PGS

  59. Muxing mode : zlib

  60. Codec ID : S_HDMV/PGS

  61. Codec ID/Info : Picture based subtitle format used on BDs/HD-DVDs

  62. Duration : 2 h 10 min

  63. Bit rate : 23.1 kb/s

  64. Count of elements : 2312

  65. Stream size : 21.6 MiB (0%)

  66. Title : eng

  67. Language : English

  68. Default : No

  69. Forced : No

  70. Original source medium : Blu-ray


  71. Text #2

  72. ID : 4

  73. ID in the original source medium : 4612 (0x1204)

  74. Format : PGS

  75. Muxing mode : zlib

  76. Codec ID : S_HDMV/PGS

  77. Codec ID/Info : Picture based subtitle format used on BDs/HD-DVDs

  78. Duration : 2 h 14 min

  79. Bit rate : 25.7 kb/s

  80. Count of elements : 1568

  81. Stream size : 24.6 MiB (0%)

  82. Title : chs&eng

  83. Language : Chinese

  84. Default : No

  85. Forced : No

  86. Original source medium : Blu-ray


  87. Text #3

  88. ID : 5

  89. ID in the original source medium : 4613 (0x1205)

  90. Format : PGS

  91. Muxing mode : zlib

  92. Codec ID : S_HDMV/PGS

  93. Codec ID/Info : Picture based subtitle format used on BDs/HD-DVDs

  94. Duration : 2 h 14 min

  95. Bit rate : 25.9 kb/s

  96. Count of elements : 1568

  97. Stream size : 24.8 MiB (0%)

  98. Title : cht&eng

  99. Language : Chinese

  100. Default : No

  101. Forced : No

  102. Original source medium : Blu-ray


  103. Text #4

  104. ID : 6

  105. ID in the original source medium : 4614 (0x1206)

  106. Format : PGS

  107. Muxing mode : zlib

  108. Codec ID : S_HDMV/PGS

  109. Codec ID/Info : Picture based subtitle format used on BDs/HD-DVDs

  110. Duration : 2 h 14 min

  111. Bit rate : 13.0 kb/s

  112. Count of elements : 1564

  113. Stream size : 12.4 MiB (0%)

  114. Title : chs

  115. Language : Chinese

  116. Default : Yes

  117. Forced : No

  118. Original source medium : Blu-ray


  119. Text #5

  120. ID : 7

  121. ID in the original source medium : 4615 (0x1207)

  122. Format : PGS

  123. Muxing mode : zlib

  124. Codec ID : S_HDMV/PGS

  125. Codec ID/Info : Picture based subtitle format used on BDs/HD-DVDs

  126. Duration : 2 h 14 min

  127. Bit rate : 13.1 kb/s

  128. Count of elements : 1564

  129. Stream size : 12.6 MiB (0%)

  130. Title : cht

  131. Language : Chinese

  132. Default : No

  133. Forced : No

  134. Original source medium : Blu-ray


  135. Menu

  136. 00:00:00.000 : 第 01 章

  137. 00:03:02.724 : 第 02 章

  138. 00:06:33.226 : 第 03 章

  139. 00:09:36.659 : 第 04 章

  140. 00:13:28.849 : 第 05 章

  141. 00:18:18.680 : 第 06 章

  142. 00:20:09.958 : 第 07 章

  143. 00:23:49.886 : 第 08 章

  144. 00:26:33.508 : 第 09 章

  145. 00:28:21.866 : 第 10 章

  146. 00:32:32.909 : 第 11 章

  147. 00:33:41.978 : 第 12 章

  148. 00:38:56.083 : 第 13 章

  149. 00:45:31.729 : 第 14 章

  150. 00:48:28.655 : 第 15 章

  151. 00:51:04.311 : 第 16 章

  152. 00:54:20.548 : 第 17 章

  153. 00:58:17.952 : 第 18 章

  154. 01:00:04.225 : 第 19 章

  155. 01:01:04.535 : 第 20 章

  156. 01:04:28.489 : 第 21 章

  157. 01:06:41.247 : 第 22 章

  158. 01:08:13.464 : 第 23 章

  159. 01:14:11.113 : 第 24 章

  160. 01:15:37.366 : 第 25 章

  161. 01:24:20.638 : 第 26 章

  162. 01:27:04.219 : 第 27 章

  163. 01:31:28.649 : 第 28 章

  164. 01:37:08.113 : 第 29 章

  165. 01:40:46.457 : 第 30 章

  166. 01:42:28.892 : 第 31 章

  167. 01:47:13.885 : 第 32 章

  168. 01:50:51.936 : 第 33 章

  169. 01:52:28.783 : 第 34 章

  170. 01:56:12.674 : 第 35 章

  171. 02:01:10.554 : 第 36 章

  172. 02:03:04.293 : 第 37 章

  173. 02:10:15.265 : 第 38 章

  174. 02:12:09.212 : 第 39 章

  175. 02:14:17.466 : 第 40 章




复制代码



文件下载


除非特别注明,本文『变脸[中文字幕].Face.Off.1997.Special.Collectors.Edition.1080p.BluRay.x265.10bit.DD.5.1.Audio 8.37GB』来源于互联网机器人自动抓取,非本站原创。 浮游电影网不对本文拥有版权,如有侵犯,请联系邮箱:fuyouu#yandex.com[#换成@]投诉。我们会在15个工作日内删除。 但烦请转载时请标明出处:“本文转载于『浮游电影网』,原文地址:https://www.fuyouu.com/14726.html

评论吧骚年!

发表你的见解   

昵称*

E-mail*(建议输入,以便收到博主回复的提示邮件)

验证码*

您可以使用eMule或eMule Mod(Windows)、aMule(Win、Linux、Mac)等软件下载eD2k链接。。
eMule收藏集(.emulecollection)文件是您选中的所有链接的列表文件。eMule可以直接下载它们。
按住SHIFT键选择可以选中多个选择框。
可用文件名和大小选择器来选择文件。
文件名选择器帮您根据文件名称或后缀来选择文件。不分大小写。
符号使用:
和:空格( )、+
不包含:-
或:|
转义:一对英文引号("");
匹配开头:^
匹配结尾:$
例如:
选中所有名称中包含有“eMule”或“0.49c”字眼,但不包含有“exe”字眼的:emule|0.49c -exe
选中所有名称的开头是“eMule”,结尾是“0.49c”的:^emule 0.49c$
选中所有名称中带有“eMule 0.49c”的(必须是“eMule 0.49c”,中间没有别的字符,不能是“eMule fake 0.49c”),需要转义:"emule 0.49c"
大小选择器帮您根据文件大小选择文件。