当前位置: 首页 >> 日韩电影 >> 小姐[中文字幕].The.Handmaiden.2016.1080p.BluRay.x265.10bit.DTS 8.71GB >> 正文

小姐[中文字幕].The.Handmaiden.2016.1080p.BluRay.x265.10bit.DTS 8.71GB

2021年10月04日 20:52:03     电影发布:来源于网络     电影分类:日韩电影     评论(0)    

小姐[中文字幕].The.Handmaiden.2016.1080p.BluRay.x265.10bit.DTS 8.71GB 同性 情色 悬疑片 剧情片 日韩电影  第1张

◎译 名 小姐 / 下女诱罪(港) / 下女的诱惑(台) / 指匠情挑 / The Handmaiden

◎片 名 ???

◎年 代 2016

◎产 地 韩国

◎类 别 剧情 / 悬疑 / 情色 / 同性

◎语 言 韩语 / 日语

◎上映日期 2016-05-14(戛纳电影节) / 2016-06-01(韩国)

◎IMDb链接 https://www.imdb.com/title/tt4016934/

◎豆瓣评分 8.4/10 (326683人评价)

◎豆瓣链接 https://movie.douban.com/subject/25977027/

◎片 长 145分钟

◎导 演 朴赞郁 Chan-wook Park (id:1137414)

◎编 剧 郑瑞景 Seo-Gyeong Jeong (id:1356850)

朴赞郁 Chan-wook Park (id:1137414)

莎拉·沃特丝 Sarah Waters (id:1275900)

◎演 员 金敏喜 Min-hee Kim (id:1035124)

金泰梨 Tae-ri Kim (id:1351047)

河正宇 Jung-woo Ha (id:1032680)

赵震雄 Cho Jin-woong (id:1322203)

文素丽 So-ri Moon (id:1010047)

金海淑 Hae-suk Kim (id:1015294)

李龙女 Yong-nyeo Lee (id:1357669)

李东辉 Dong-Hwi Lee (id:1353574)

赵恩亨 Eun-hyung Jo (id:1360738)

郑荷昙 Hadam Jeong (id:1364457)

金仁宇 In-woo Kim (id:1381257)

金诗恩 Kim Si-eun (id:1380475)

高木里奈 Rina Takagi (id:1323505)

崔秉默 Byung-mo Choi (id:1376009)

权爀 Hyuk Kwon (id:1383963)

足立智充 Tomomitsu Adachi (id:1324028)

朴赞郁 Chan-wook Park (id:1137414)

郑泰成 Tae-sung Jeong (id:1397764)

曹永旭 Yeong-wook Jo (id:1287735)

丁正勋 Chung-hoon Chung (id:1076638)

金尚范 Sang-bum Kim (id:1288546)

金宰范 Jae-Bum Kim (id:1366923)

柳星姬 Seong-hie Ryu (id:1307424)

赵相庆 Sang-gyeong Jo (id:1366931)

金石源 Suk-won Kim (id:1305145)

◎标 签 韩国 / 同性 / 情色 / 女性 / 悬疑 / 爱情 / 剧情 / 人性

◎简 介

公爵(河正宇 饰)为了得到日本贵族秀子小姐(金敏喜 饰)的财产,意欲娶她为妻,而后以其患上精神疾病为由将秀子送入精神病院。为了实现自己的阴谋,公爵将出生于小偷世家的南淑熙(金泰璃 饰)送到秀子的身边担任女佣,如此一来两人里应外合,深闺之中不谙世事的秀子和她的万贯家财根本 就是他们的囊中之物。

在南淑熙的眼中,秀子天真而又脆弱,善良但是敏感,随着时间的推移,朝夕相处的两人之间产生了真挚的情谊,而公爵虚伪而又贪婪的假面渐渐令南淑熙意欲作呕。可是,面对高额的报酬,南淑熙选择了背叛,在她的游说之下,秀子和公爵私奔,举行了结婚仪式,就在这时,发生了一件令南淑熙再也想不到的意外。

◎获奖情况 (共44项)

第69届戛纳电影节 (2016)

主竞赛单元 金棕榈奖(提名)

└──朴赞郁 (id:1137414)

同志金棕榈奖(提名)

└──朴赞郁 (id:1137414)

第71届英国电影学院奖 (2018)

电影奖 最佳非英语

第37届韩国电影青龙奖 (2016)

最佳影片(提名)

└──朴赞郁 (id:1137414)

最佳导演(提名)

└──朴赞郁 (id:1137414)

最佳女主角

└──金敏喜 (id:1035124)

最佳新人女演员

└──金泰梨 (id:1351047)

最佳美术

最佳配乐(提名)

最佳照明(提名)

技术奖(提名)

第11届亚洲电影大奖 (2017)

最佳新演员

└──金泰梨 (id:1351047)

最佳女配角

└──文素丽 (id:1010047)

最佳编剧(提名)

最佳剪接(提名)

最佳美术指导

└──柳星姬 (id:1307424)

最佳造型设计

└──赵相庆 (id:1366931)

第53届百想艺术大赏 (2017)

电影类 大赏

└──朴赞郁 (id:1137414)

电影类 最佳影片(提名)

└──朴赞郁 (id:1137414)

电影类 最佳导演(提名)

└──朴赞郁 (id:1137414)

电影类 最佳女主角(提名)

└──金敏喜 (id:1035124)

电影类 最佳男配角(提名)

└──赵震雄 (id:1322203)

电影类 最佳新人女演员(提名)

└──金泰梨 (id:1351047)

电影类 最佳编剧(提名)

第88届美国国家评论协会奖 (2016)

五佳外语片(提名)

第22届美国评论家选择电影奖 (2017)

最佳外语片(提名)

第21届金卫星奖 (2017)

电影部门 最佳外语片(提名)

第15届华盛顿影评人协会奖 (2016)

最佳外语片(提名)

第37届波士顿影评人协会奖 (2016)

最佳外语片

└──朴赞郁 (id:1137414)

最佳摄影

└──延政勋 (id:1043135)

第42届洛杉矶影评人协会奖 (2016)

最佳艺术指导

最佳外语片

第29届芝加哥影评人协会奖 (2016)

最佳影片(提名)

最佳导演(提名)

└──朴赞郁 (id:1137414)

最佳改编剧本

最佳外语片

最佳摄影(提名)

└──丁正勋 (id:1076638)

最佳艺术指导

第20届美国在线影评人协会奖 (2017)

最佳影片(提名)

最佳非英语片

第3届豆瓣电影年度榜单 (2016)

最受关注的非院线电影(提名)

评分最高的韩国电影(提名)

年度LGBT电影

8月最受关注电影(提名)

  1. ##### MediaInfo ######

  2. General

  3. Unique ID : 182451278868446056739309218231491769878 (0x8942D6901C3C7BB520B4A51D64D03616)

  4. Complete name : [email protected].mkv

  5. Format : Matroska

  6. Format version : Version 4

  7. File size : 8.71 GiB

  8. Duration : 2 h 47 min

  9. Overall bit rate : 7 450 kb/s

  10. Movie name : The Handmaiden 2016

  11. Encoded date : UTC 2021-10-02 05:37:16

  12. Writing application : mkvmerge v61.0.0 ('So') 64-bit

  13. Writing library : libebml v1.4.2 + libmatroska v1.6.4

  14. Cover : Yes

  15. Attachments : cover.jpg


  16. Video

  17. ID : 1

  18. Format : HEVC

  19. Format/Info : High Efficiency Video Coding

  20. Format profile : Main [email protected]@Main

  21. Codec ID : V_MPEGH/ISO/HEVC

  22. Duration : 2 h 47 min

  23. Bit rate : 5 905 kb/s

  24. Width : 1 920 pixels

  25. Height : 804 pixels

  26. Display aspect ratio : 2.40:1

  27. Frame rate mode : Constant

  28. Frame rate : 24.000 FPS

  29. Color space : YUV

  30. Chroma subsampling : 4:2:0

  31. Bit depth : 10 bits

  32. Bits/(Pixel*Frame) : 0.159

  33. Stream size : 6.90 GiB (79%)

  34. Writing library : x265 3.5+2-g2b25c9ba0+45:[Windows][GCC 10.2.0][64 bit] Yuuki 10bit+8bit+12bit

  35. Encoding settings : rc=crf / crf=15.0000 / qcomp=0.60 / qpstep=4 / stats-write=0 / stats-read=0 / no-lossless / no-cu-lossless / aq-mode=3 / aq-strength=0.90 / cbqpoffs=0 / crqpoffs=0 / ipratio=1.40 / pbratio=1.30 / psy-rd=2.00 / psy-rdoq=0.00 / deblock=0:0 / ref=6 / limit-refs=1 / no-limit-modes / bframes=8 / b-adapt=2 / bframe-bias=0 / b-pyramid / b-intra / weightp / weightb / min-keyint=24 / max-keyint=240 / rc-lookahead=24 / gop-lookahead=0 / NTMzNTQ=uuDQuD2mJt9fsCf / scenecut=40 / hist-scenecut=0 / radl=0 / max-cu-size=64 / min-cu-size=8 / me=3 / subme=7 / merange=48 / rdoq-level=0 / rd=4 / rdpenalty=0 / dynamic-rd=0.00 / no-rd-refine / ----- / cutree / sao / no-rect / no-amp / no-open-gop / wpp / no-pmode / no-pme / no-psnr / no-ssim / nr-intra=0 / nr-inter=0 / no-constrained-intra / no-strong-intra-smoothing / max-tu-size=32 / tu-inter-depth=1 / tu-intra-depth=1 / limit-tu=0 / qg-size=32 / qpmax=69 / qpmin=0 / ----- / cpuid=533541111039 / frame-threads=4 / numa-pools=+ / log-level=2 / input-csp=1 / input-res=1920x804 / interlace=0 / level-idc=0 / high-tier=1 / uhd-bd=0 / no-allow-non-conformance / repeat-headers / aud / no-hrd / info / hash=0 / no-temporal-layers / lookahead-slices=0 / no-splice / no-intra-refresh / no-ssim-rd / signhide / no-tskip / max-merge=3 / temporal-mvp / no-frame-dup / no-hme / no-analyze-src-pics / no-sao-non-deblock / selective-sao=4 / early-skip / rskip / no-fast-intra / no-tskip-fast / no-splitrd-skip / zone-count=0 / no-strict-cbr / no-rc-grain / no-const-vbv / sar=0 / overscan=0 / videoformat=5 / range=0 / colorprim=2 / transfer=2 / colormatrix=2 / chromaloc=0 / display-window=0 / cll=0,0 / min-luma=0 / max-luma=1023 / log2-max-poc-lsb=8 / vui-timing-info / vui-hrd-info / slices=1 / no-opt-qp-pps / no-opt-ref-list-length-pps / no-multi-pass-opt-rps / scenecut-bias=0.05 / hist-threshold=0.03 / no-opt-cu-delta-qp / no-aq-motion / no-hdr10 / no-hdr10-opt / no-dhdr10-opt / no-idr-recovery-sei / analysis-reuse-level=0 / analysis-save-reuse-level=0 / analysis-load-reuse-level=0 / scale-factor=0 / refine-intra=0 / refine-inter=0 / refine-mv=1 / refine-ctu-distortion=0 / no-limit-sao / ctu-info=0 / no-lowpass-dct / refine-analysis-type=0 / copy-pic=1 / max-ausize-factor=1.0 / no-dynamic-refine / no-single-sei / no-hevc-aq / no-svt / no-field / qp-adaptation-range=1.00 / scenecut-aware-qp=0conformance-window-offsets / right=0 / bottom=0 / NTMzNTQ= / decoder-max-rate=0 / no-vbv-live-multi-pass

  36. Default : Yes

  37. Forced : No


  38. Audio

  39. ID : 2

  40. ID in the original source medium : 4352 (0x1100)

  41. Format : DTS

  42. Format/Info : Digital Theater Systems

  43. Codec ID : A_DTS

  44. Duration : 2 h 47 min

  45. Bit rate mode : Constant

  46. Bit rate : 1 509 kb/s

  47. Channel(s) : 6 channels

  48. Channel layout : C L R Ls Rs LFE

  49. Sampling rate : 48.0 kHz

  50. Frame rate : 93.750 FPS (512 SPF)

  51. Bit depth : 24 bits

  52. Compression mode : Lossy

  53. Stream size : 1.76 GiB (20%)

  54. Language : Korean

  55. Default : Yes

  56. Forced : No

  57. Original source medium : Blu-ray


  58. Text #1

  59. ID : 3

  60. Format : PGS

  61. Muxing mode : zlib

  62. Codec ID : S_HDMV/PGS

  63. Codec ID/Info : Picture based subtitle format used on BDs/HD-DVDs

  64. Duration : 2 h 45 min

  65. Bit rate : 17.8 kb/s

  66. Count of elements : 2605

  67. Stream size : 21.1 MiB (0%)

  68. Title : chs

  69. Language : Chinese

  70. Default : Yes

  71. Forced : No


  72. Text #2

  73. ID : 4

  74. Format : PGS

  75. Muxing mode : zlib

  76. Codec ID : S_HDMV/PGS

  77. Codec ID/Info : Picture based subtitle format used on BDs/HD-DVDs

  78. Duration : 2 h 45 min

  79. Bit rate : 18.0 kb/s

  80. Count of elements : 2605

  81. Stream size : 21.4 MiB (0%)

  82. Title : cht

  83. Language : Chinese

  84. Default : No

  85. Forced : No


  86. Text #3

  87. ID : 5

  88. ID in the original source medium : 4608 (0x1200)

  89. Format : PGS

  90. Muxing mode : zlib

  91. Codec ID : S_HDMV/PGS

  92. Codec ID/Info : Picture based subtitle format used on BDs/HD-DVDs

  93. Duration : 2 h 45 min

  94. Bit rate : 18.9 kb/s

  95. Count of elements : 2968

  96. Stream size : 22.4 MiB (0%)

  97. Language : Korean

  98. Default : No

  99. Forced : No

  100. Original source medium : Blu-ray


  101. Text #4

  102. ID : 6

  103. ID in the original source medium : 4609 (0x1201)

  104. Format : PGS

  105. Muxing mode : zlib

  106. Codec ID : S_HDMV/PGS

  107. Codec ID/Info : Picture based subtitle format used on BDs/HD-DVDs

  108. Duration : 2 h 45 min

  109. Bit rate : 21.6 kb/s

  110. Count of elements : 2669

  111. Stream size : 25.6 MiB (0%)

  112. Language : English

  113. Default : No

  114. Forced : No

  115. Original source medium : Blu-ray


  116. Menu

  117. 00:00:00.000 : Chapter 01

  118. 00:02:19.666 : Chapter 02

  119. 00:16:57.833 : Chapter 03

  120. 00:37:58.708 : Chapter 04

  121. 00:46:06.666 : Chapter 05

  122. 00:55:04.541 : Chapter 06

  123. 01:00:24.708 : Chapter 07

  124. 01:08:19.041 : Chapter 08

  125. 01:13:46.541 : Chapter 09

  126. 01:23:03.583 : Chapter 10

  127. 01:46:33.250 : Chapter 11

  128. 01:56:01.708 : Chapter 12

  129. 02:08:06.000 : Chapter 13

  130. 02:13:50.958 : Chapter 14

  131. 02:34:57.208 : Chapter 15

  132. 02:41:14.333 : Chapter 16


文件下载


除非特别注明,本文『小姐[中文字幕].The.Handmaiden.2016.1080p.BluRay.x265.10bit.DTS 8.71GB』来源于互联网机器人自动抓取,非本站原创。 浮游电影网不对本文拥有版权,如有侵犯,请联系邮箱:fuyouu#yandex.com[#换成@]投诉。我们会在15个工作日内删除。 但烦请转载时请标明出处:“本文转载于『浮游电影网』,原文地址:https://www.fuyouu.com/14725.html

评论吧骚年!

发表你的见解   

昵称*

E-mail*(建议输入,以便收到博主回复的提示邮件)

验证码*

您可以使用eMule或eMule Mod(Windows)、aMule(Win、Linux、Mac)等软件下载eD2k链接。。
eMule收藏集(.emulecollection)文件是您选中的所有链接的列表文件。eMule可以直接下载它们。
按住SHIFT键选择可以选中多个选择框。
可用文件名和大小选择器来选择文件。
文件名选择器帮您根据文件名称或后缀来选择文件。不分大小写。
符号使用:
和:空格( )、+
不包含:-
或:|
转义:一对英文引号("");
匹配开头:^
匹配结尾:$
例如:
选中所有名称中包含有“eMule”或“0.49c”字眼,但不包含有“exe”字眼的:emule|0.49c -exe
选中所有名称的开头是“eMule”,结尾是“0.49c”的:^emule 0.49c$
选中所有名称中带有“eMule 0.49c”的(必须是“eMule 0.49c”,中间没有别的字符,不能是“eMule fake 0.49c”),需要转义:"emule 0.49c"
大小选择器帮您根据文件大小选择文件。