当前位置: 首页 >> 海外电影 >> 堤[中文字幕].1962.1080p.x265.10bit.Flac.1.0 1.51GB >> 正文

堤[中文字幕].1962.1080p.x265.10bit.Flac.1.0 1.51GB

2021年10月04日 20:43:03     电影发布:来源于网络     电影分类:海外电影     评论(0)    

堤[中文字幕].1962.1080p.x265.10bit.Flac.1.0 1.51GB 短片 科幻片 爱情片 剧情片 海外电影  第1张

◎译 名 堤 / 停机坪 / 堤坝 / The Pier

◎片 名 La jetée

◎年 代 1962

◎产 地 法国

◎类 别 剧情 / 爱情 / 科幻 / 短片

◎语 言 法语 / 德语

◎上映日期 1962-02-16

◎IMDb链接 https://www.imdb.com/title/tt0056119/

◎豆瓣评分 9.0/10 (21218人评价)

◎豆瓣链接 https://movie.douban.com/subject/1306626/

◎片 长 28 分钟

◎导 演 克里斯·马克 Chris Marker (id:1025376)

◎编 剧 克里斯·马克 Chris Marker (id:1025376)

◎演 员 让·内格罗尼 Jean Négroni (id:1134254)

埃莱娜·夏特兰 Hélène Chatelain (id:1343770)

达沃斯·哈尼奇 Davos Hanich (id:1343769)

雅克·勒杜 Jacques Ledoux (id:1106357)

étienne Becker étienne Becker (id:1048755)

利贾·布拉尼卡 Ligia Branice (id:1072835)

威廉姆·克莱因 William Klein (id:1002950)

Germano Facetti Germano Facetti (id:1082804)

Anatole Dauman Anatole Dauman (id:1008464)

克里斯·马克 Chris Marker (id:1025376)

Jean Ravel Jean Ravel (id:1295276)

◎标 签 短片 / 法国 / 科幻 / 实验 / 法国电影 / 1962 / 克利斯·马克 / 1960s

◎简 介

遍野废墟,末世凄凉。男主人公(达沃斯·哈内赤 Davos Hanich饰)成为核战爆发后少数存活下来的人类。他幼年时梦中总是目睹一名陌生男子的死亡,这也使得他成为了时光旅行的实验品。他被送往核战爆发前夕的过去,他在堤岸上遇见一位女子(海伦·夏特兰 Hélène Chatelain饰),并且爱上了她。当实验快结束时,他又要被送往躲过浩劫的未来。但是他拒绝了这个机会,势要与自己心爱的女子在一起。然而到最后,他才恍然发现,幼年时常梦见的死亡,原来正是自己。

这部由新浪潮左岸派代表人物克里斯·马克执导编剧的科幻先锋派短片《堤》,是科幻片历史中的一座里程碑。全片用完全静止的画面,模拟人类对往事的印象,讲述一个世界末日后的故事。简洁有力的音效氛围,流畅凝练的剪辑镜头,配上如诗如梦的旁白语言,一段梦中破碎的记忆被描画得触目惊心。

  1. ##### MediaInfo ######

  2. General

  3. Unique ID : 128392321314896681215933828447038060713 (0x6097762D0DE9636F0A3A20B77F77B8A9)

  4. Complete name : La Jetée 1962 1080p x265 10bit Flac [email protected]

  5. Format : Matroska

  6. Format version : Version 4

  7. File size : 1.51 GiB

  8. Duration : 28 min 6 s

  9. Overall bit rate mode : Variable

  10. Overall bit rate : 7 665 kb/s

  11. Movie name : LA JETéE | SANS SOLEIL

  12. Encoded date : UTC 2021-10-02 14:39:35

  13. Writing application : mkvmerge v60.0.0 ('Are We Copies?') 64-bit

  14. Writing library : libebml v1.4.2 + libmatroska v1.6.4

  15. Cover : Yes

  16. Attachments : cover.jpg / cover.jpg / cover.jpg


  17. Video

  18. ID : 1

  19. Format : HEVC

  20. Format/Info : High Efficiency Video Coding

  21. Format profile : Main [email protected]@Main

  22. Codec ID : V_MPEGH/ISO/HEVC

  23. Duration : 28 min 6 s

  24. Bit rate : 6 436 kb/s

  25. Width : 1 764 pixels

  26. Height : 1 080 pixels

  27. Display aspect ratio : 16:10

  28. Frame rate mode : Constant

  29. Frame rate : 23.976 (24000/1001/53354) FPS

  30. Color space : YUV

  31. Chroma subsampling : 4:2:0

  32. Bit depth : 10 bits

  33. Bits/(Pixel*Frame) : 0.141

  34. Stream size : 1.26 GiB (84%)

  35. Writing library : x265 3.5+2-g2b25c9ba0+45:[Windows][GCC 10.2.0][64 bit] Yuuki 10bit+8bit+12bit

  36. Encoding settings : rc=crf / crf=22.0000 / qcomp=0.70 / qpstep=4 / stats-write=0 / stats-read=0 / no-lossless / no-cu-lossless / aq-mode=3 / aq-strength=0.70 / cbqpoffs=0 / crqpoffs=0 / ipratio=1.40 / pbratio=1.30 / psy-rd=2.00 / psy-rdoq=0.00 / deblock=0:0 / ref=6 / limit-refs=1 / no-limit-modes / bframes=8 / b-adapt=2 / bframe-bias=0 / b-pyramid / b-intra / weightp / weightb / min-keyint=24 / max-keyint=240 / rc-lookahead=24 / gop-lookahead=0 / NTMzNTQ=uuDQuD2mJt9fsCf / scenecut=40 / hist-scenecut=0 / radl=0 / max-cu-size=64 / min-cu-size=8 / me=3 / subme=7 / merange=48 / rdoq-level=0 / rd=4 / rdpenalty=0 / dynamic-rd=0.00 / no-rd-refine / ----- / cutree / sao / no-rect / no-amp / no-open-gop / wpp / no-pmode / no-pme / no-psnr / no-ssim / nr-intra=0 / nr-inter=0 / no-constrained-intra / no-strong-intra-smoothing / max-tu-size=32 / tu-inter-depth=1 / tu-intra-depth=1 / limit-tu=0 / qg-size=32 / qpmax=69 / qpmin=0 / ----- / cpuid=533541111039 / frame-threads=4 / numa-pools=+ / log-level=2 / input-csp=1 / input-res=1764x1080 / interlace=0 / level-idc=0 / high-tier=1 / uhd-bd=0 / no-allow-non-conformance / no-repeat-headers / aud / no-hrd / info / hash=0 / no-temporal-layers / lookahead-slices=6 / no-splice / no-intra-refresh / no-ssim-rd / signhide / no-tskip / max-merge=3 / temporal-mvp / no-frame-dup / no-hme / no-analyze-src-pics / no-sao-non-deblock / selective-sao=4 / early-skip / rskip / no-fast-intra / no-tskip-fast / no-splitrd-skip / zone-count=0 / no-strict-cbr / no-rc-grain / no-const-vbv / sar=0 / overscan=0 / videoformat=5 / range=0 / colorprim=2 / transfer=2 / colormatrix=2 / chromaloc=0 / display-window=0 / cll=0,0 / min-luma=0 / max-luma=1023 / log2-max-poc-lsb=8 / vui-timing-info / vui-hrd-info / slices=1 / no-opt-qp-pps / no-opt-ref-list-length-pps / no-multi-pass-opt-rps / scenecut-bias=0.05 / hist-threshold=0.03 / no-opt-cu-delta-qp / no-aq-motion / no-hdr10 / no-hdr10-opt / no-dhdr10-opt / no-idr-recovery-sei / analysis-reuse-level=0 / analysis-save-reuse-level=0 / analysis-load-reuse-level=0 / scale-factor=0 / refine-intra=0 / refine-inter=0 / refine-mv=1 / refine-ctu-distortion=0 / no-limit-sao / ctu-info=0 / no-lowpass-dct / refine-analysis-type=0 / copy-pic=1 / max-ausize-factor=1.0 / no-dynamic-refine / no-single-sei / no-hevc-aq / no-svt / no-field / qp-adaptation-range=1.00 / scenecut-aware-qp=0conformance-window-offsets / right=0 / bottom=0 / NTMzNTQ= / decoder-max-rate=0 / no-vbv-live-multi-pass

  37. Language : English

  38. Default : Yes

  39. Forced : No


  40. Audio #1

  41. ID : 2

  42. Format : FLAC

  43. Format/Info : Free Lossless Audio Codec

  44. Codec ID : A_FLAC

  45. Duration : 28 min 6 s

  46. Bit rate mode : Variable

  47. Bit rate : 601 kb/s

  48. Channel(s) : 1 channel

  49. Sampling rate : 48.0 kHz

  50. Frame rate : 11.719 FPS (4096 SPF)

  51. Bit depth : 24 bits

  52. Compression mode : Lossless

  53. Stream size : 121 MiB (8%)

  54. Title : 英语

  55. Writing library : libFLAC 1.2.1 (UTC 2007-09-17)

  56. Language : English

  57. Default : No

  58. Forced : No


  59. Audio #2

  60. ID : 3

  61. Format : FLAC

  62. Format/Info : Free Lossless Audio Codec

  63. Codec ID : A_FLAC

  64. Duration : 28 min 6 s

  65. Bit rate mode : Variable

  66. Bit rate : 603 kb/s

  67. Channel(s) : 1 channel

  68. Sampling rate : 48.0 kHz

  69. Frame rate : 11.719 FPS (4096 SPF)

  70. Bit depth : 24 bits

  71. Compression mode : Lossless

  72. Stream size : 121 MiB (8%)

  73. Title : 法语

  74. Writing library : libFLAC 1.2.1 (UTC 2007-09-17)

  75. Language : French

  76. Default : Yes

  77. Forced : No


  78. Text #1

  79. ID : 4

  80. Format : PGS

  81. Muxing mode : zlib

  82. Codec ID : S_HDMV/PGS

  83. Codec ID/Info : Picture based subtitle format used on BDs/HD-DVDs

  84. Duration : 26 min 56 s

  85. Bit rate : 17.8 kb/s

  86. Count of elements : 413

  87. Stream size : 3.43 MiB (0%)

  88. Title : chs

  89. Language : Chinese

  90. Default : Yes

  91. Forced : No


  92. Text #2

  93. ID : 5

  94. Format : PGS

  95. Muxing mode : zlib

  96. Codec ID : S_HDMV/PGS

  97. Codec ID/Info : Picture based subtitle format used on BDs/HD-DVDs

  98. Duration : 26 min 56 s

  99. Bit rate : 18.0 kb/s

  100. Count of elements : 413

  101. Stream size : 3.47 MiB (0%)

  102. Title : cht

  103. Language : Chinese

  104. Default : Yes

  105. Forced : No


  106. Text #3

  107. ID : 6

  108. Format : PGS

  109. Muxing mode : zlib

  110. Codec ID : S_HDMV/PGS

  111. Codec ID/Info : Picture based subtitle format used on BDs/HD-DVDs

  112. Duration : 25 min 59 s

  113. Bit rate : 32.0 kb/s

  114. Count of elements : 413

  115. Stream size : 5.96 MiB (0%)

  116. Title : eng

  117. Language : English

  118. Default : Yes

  119. Forced : No


文件下载


除非特别注明,本文『堤[中文字幕].1962.1080p.x265.10bit.Flac.1.0 1.51GB』来源于互联网机器人自动抓取,非本站原创。 浮游电影网不对本文拥有版权,如有侵犯,请联系邮箱:fuyouu#yandex.com[#换成@]投诉。我们会在15个工作日内删除。 但烦请转载时请标明出处:“本文转载于『浮游电影网』,原文地址:https://www.fuyouu.com/14724.html

评论吧骚年!

发表你的见解   

昵称*

E-mail*(建议输入,以便收到博主回复的提示邮件)

验证码*

您可以使用eMule或eMule Mod(Windows)、aMule(Win、Linux、Mac)等软件下载eD2k链接。。
eMule收藏集(.emulecollection)文件是您选中的所有链接的列表文件。eMule可以直接下载它们。
按住SHIFT键选择可以选中多个选择框。
可用文件名和大小选择器来选择文件。
文件名选择器帮您根据文件名称或后缀来选择文件。不分大小写。
符号使用:
和:空格( )、+
不包含:-
或:|
转义:一对英文引号("");
匹配开头:^
匹配结尾:$
例如:
选中所有名称中包含有“eMule”或“0.49c”字眼,但不包含有“exe”字眼的:emule|0.49c -exe
选中所有名称的开头是“eMule”,结尾是“0.49c”的:^emule 0.49c$
选中所有名称中带有“eMule 0.49c”的(必须是“eMule 0.49c”,中间没有别的字符,不能是“eMule fake 0.49c”),需要转义:"emule 0.49c"
大小选择器帮您根据文件大小选择文件。