当前位置: 首页 >> 港台电影 >> 反贪风暴4[国粤语配音/中文字幕].P.Storm.2019.1080p.BluRay.x265.10bit.DTS.2Audio 5.68GB >> 正文

反贪风暴4[国粤语配音/中文字幕].P.Storm.2019.1080p.BluRay.x265.10bit.DTS.2Audio 5.68GB

2021年10月04日 20:40:20     电影发布:来源于网络     电影分类:港台电影     评论(0)    

反贪风暴4[国粤语配音/中文字幕].P.Storm.2019.1080p.BluRay.x265.10bit.DTS.2Audio 5.68GB 犯罪片 动作片 港台电影  第1张

导演: 林德禄

编剧: 黄浩华 / 何文龙

主演: 古天乐 / 郑嘉颖 / 林峯 / 林家栋 / 周秀娜 / 更多...

类型: 动作 / 犯罪

制片国家/地区: 中国香港 / 中国大陆

语言: 粤语 / 汉语普通话

上映日期: 2019-04-04(中国大陆)

片长: 96分钟

又名: P Storm

IMDb: tt10017680

豆瓣评分5.9149681人评价5星4.0%

4星17.5%

3星53.8%

2星21.0%

1星3.7%

好于 16% 犯罪片

好于 26% 动作片

想看看过评价: 反贪风暴4[国粤语配音/中文字幕].P.Storm.2019.1080p.BluRay.x265.10bit.DTS.2Audio 5.68GB 犯罪片 动作片 港台电影  第2张 反贪风暴4[国粤语配音/中文字幕].P.Storm.2019.1080p.BluRay.x265.10bit.DTS.2Audio 5.68GB 犯罪片 动作片 港台电影  第3张 反贪风暴4[国粤语配音/中文字幕].P.Storm.2019.1080p.BluRay.x265.10bit.DTS.2Audio 5.68GB 犯罪片 动作片 港台电影  第4张 反贪风暴4[国粤语配音/中文字幕].P.Storm.2019.1080p.BluRay.x265.10bit.DTS.2Audio 5.68GB 犯罪片 动作片 港台电影  第5张 反贪风暴4[国粤语配音/中文字幕].P.Storm.2019.1080p.BluRay.x265.10bit.DTS.2Audio 5.68GB 犯罪片 动作片 港台电影  第6张

推荐反贪风暴4的剧情简介 · · · · · · 廉政公署收到报案人廖雨萍(周秀娜饰)的实名举报,举报正在坐牢的富二代曹元元(林峯饰)涉嫌行贿监狱里的监督沈济全(谭耀文饰)以及惩教员,首席调查主任陆志廉(古天乐饰)决定深入虎穴,卧底狱中。在监狱里,被陆志廉送入监狱的前警司黄文彬(林家栋饰)以及曹元元两大帮派势成水火,陆志廉趁机接近曹元元取得信任。同时监狱外的廉政公署总调查主任程德明(郑嘉颖饰)、国内反贪局行动处处长洪亮(丁海峰饰)也陆港联手,通力合作,最终成功破获贪腐行贿大案。


  1. ##### MediaInfo ######

  2. General

  3. Unique ID : 168785847777635791715017904254138383739 (0x7EFAF8CAA96ADBEACE391278AB8EFD7B)

  4. Complete name : [email protected].mkv

  5. Format : Matroska

  6. Format version : Version 4

  7. File size : 5.68 GiB

  8. Duration : 1 h 36 min

  9. Overall bit rate : 8 453 kb/s

  10. Encoded date : UTC 2021-10-02 06:10:41

  11. Writing application : mkvmerge v56.1.0 ('My Friend') 64-bit

  12. Writing library : libebml v1.4.2 + libmatroska v1.6.4


  13. Video

  14. ID : 1

  15. Format : HEVC

  16. Format/Info : High Efficiency Video Coding

  17. Format profile : Main [email protected]@Main

  18. Codec ID : V_MPEGH/ISO/HEVC

  19. Duration : 1 h 36 min

  20. Bit rate : 6 131 kb/s

  21. Width : 1 920 pixels

  22. Height : 818 pixels

  23. Display aspect ratio : 2.35:1

  24. Frame rate mode : Constant

  25. Frame rate : 24.000 FPS

  26. Color space : YUV

  27. Chroma subsampling : 4:2:0

  28. Bit depth : 10 bits

  29. Bits/(Pixel*Frame) : 0.163

  30. Stream size : 4.12 GiB (73%)

  31. Writing library : x265 3.5+2-g2b25c9ba0+45:[Windows][GCC 10.2.0][64 bit] Yuuki 10bit+8bit+12bit

  32. Encoding settings : rc=crf / crf=16.5000 / qcomp=0.70 / qpstep=4 / stats-write=0 / stats-read=0 / no-lossless / no-cu-lossless / aq-mode=3 / aq-strength=0.85 / cbqpoffs=0 / crqpoffs=0 / ipratio=1.40 / pbratio=1.30 / psy-rd=2.00 / psy-rdoq=0.00 / deblock=0:0 / ref=6 / limit-refs=1 / no-limit-modes / bframes=9 / b-adapt=2 / bframe-bias=0 / b-pyramid / b-intra / weightp / weightb / min-keyint=24 / max-keyint=240 / rc-lookahead=24 / gop-lookahead=0 / NTMzNTQ=uuDQuD2mJt9fsCf / scenecut=40 / hist-scenecut=0 / radl=0 / max-cu-size=64 / min-cu-size=8 / me=3 / subme=7 / merange=48 / rdoq-level=0 / rd=4 / rdpenalty=0 / dynamic-rd=0.00 / no-rd-refine / ----- / cutree / sao / no-rect / no-amp / no-open-gop / wpp / no-pmode / no-pme / no-psnr / no-ssim / nr-intra=0 / nr-inter=0 / no-constrained-intra / no-strong-intra-smoothing / max-tu-size=32 / tu-inter-depth=1 / tu-intra-depth=1 / limit-tu=0 / qg-size=32 / qpmax=69 / qpmin=0 / ----- / cpuid=533541111039 / frame-threads=4 / numa-pools=+ / log-level=2 / input-csp=1 / input-res=1920x818 / interlace=0 / level-idc=0 / high-tier=1 / uhd-bd=0 / no-allow-non-conformance / no-repeat-headers / aud / no-hrd / info / hash=0 / no-temporal-layers / lookahead-slices=0 / no-splice / no-intra-refresh / no-ssim-rd / signhide / no-tskip / max-merge=3 / temporal-mvp / no-frame-dup / no-hme / no-analyze-src-pics / no-sao-non-deblock / selective-sao=4 / early-skip / rskip / no-fast-intra / no-tskip-fast / no-splitrd-skip / zone-count=0 / no-strict-cbr / no-rc-grain / no-const-vbv / sar=0 / overscan=0 / videoformat=5 / range=0 / colorprim=2 / transfer=2 / colormatrix=2 / chromaloc=0 / display-window=0 / cll=0,0 / min-luma=0 / max-luma=1023 / log2-max-poc-lsb=8 / vui-timing-info / vui-hrd-info / slices=1 / no-opt-qp-pps / no-opt-ref-list-length-pps / no-multi-pass-opt-rps / scenecut-bias=0.05 / hist-threshold=0.03 / no-opt-cu-delta-qp / no-aq-motion / no-hdr10 / no-hdr10-opt / no-dhdr10-opt / no-idr-recovery-sei / analysis-reuse-level=0 / analysis-save-reuse-level=0 / analysis-load-reuse-level=0 / scale-factor=0 / refine-intra=0 / refine-inter=0 / refine-mv=1 / refine-ctu-distortion=0 / no-limit-sao / ctu-info=0 / no-lowpass-dct / refine-analysis-type=0 / copy-pic=1 / max-ausize-factor=1.0 / no-dynamic-refine / no-single-sei / no-hevc-aq / no-svt / no-field / qp-adaptation-range=1.00 / scenecut-aware-qp=0conformance-window-offsets / right=0 / bottom=0 / NTMzNTQ= / decoder-max-rate=0 / no-vbv-live-multi-pass

  33. Default : Yes

  34. Forced : No


  35. Audio #1

  36. ID : 2

  37. Format : DTS

  38. Format/Info : Digital Theater Systems

  39. Codec ID : A_DTS

  40. Duration : 1 h 36 min

  41. Bit rate mode : Constant

  42. Bit rate : 1 510 kb/s

  43. Channel(s) : 6 channels

  44. Channel layout : C L R Ls Rs LFE

  45. Sampling rate : 48.0 kHz

  46. Frame rate : 93.750 FPS (512 SPF)

  47. Bit depth : 24 bits

  48. Compression mode : Lossy

  49. Stream size : 1.01 GiB (18%)

  50. Title : Cantonese

  51. Language : Chinese

  52. Default : Yes

  53. Forced : No


  54. Audio #2

  55. ID : 3

  56. ID in the original source medium : 4353 (0x1101)

  57. Format : E-AC-3

  58. Format/Info : Enhanced AC-3

  59. Commercial name : Dolby Digital Plus

  60. Format profile : Blu-ray Disc

  61. Codec ID : A_EAC3

  62. Duration : 1 h 36 min

  63. Bit rate mode : Constant

  64. Bit rate : 768 kb/s

  65. Channel(s) : 8 channels

  66. Channel layout : L R C LFE Ls Rs Lb Rb

  67. Sampling rate : 48.0 kHz

  68. Frame rate : 31.250 FPS (1536 SPF)

  69. Compression mode : Lossy

  70. Stream size : 529 MiB (9%)

  71. Title : Mandarin

  72. Language : Chinese

  73. Service kind : Complete Main

  74. Default : No

  75. Forced : No

  76. Original source medium : Blu-ray


  77. Text #1

  78. ID : 4

  79. Format : PGS

  80. Muxing mode : zlib

  81. Codec ID : S_HDMV/PGS

  82. Codec ID/Info : Picture based subtitle format used on BDs/HD-DVDs

  83. Duration : 1 h 32 min

  84. Bit rate : 29.4 kb/s

  85. Count of elements : 2620

  86. Stream size : 19.4 MiB (0%)

  87. Title : chs

  88. Language : Chinese

  89. Default : Yes

  90. Forced : No


  91. Text #2

  92. ID : 5

  93. ID in the original source medium : 4608 (0x1200)

  94. Format : PGS

  95. Muxing mode : zlib

  96. Codec ID : S_HDMV/PGS

  97. Codec ID/Info : Picture based subtitle format used on BDs/HD-DVDs

  98. Duration : 1 h 32 min

  99. Bit rate : 28.8 kb/s

  100. Count of elements : 2760

  101. Stream size : 19.0 MiB (0%)

  102. Title : cht

  103. Language : Chinese

  104. Default : No

  105. Forced : No

  106. Original source medium : Blu-ray


  107. Text #3

  108. ID : 6

  109. ID in the original source medium : 4609 (0x1201)

  110. Format : PGS

  111. Muxing mode : zlib

  112. Codec ID : S_HDMV/PGS

  113. Codec ID/Info : Picture based subtitle format used on BDs/HD-DVDs

  114. Duration : 1 h 32 min

  115. Bit rate : 30.5 kb/s

  116. Count of elements : 2778

  117. Stream size : 20.1 MiB (0%)

  118. Title : eng

  119. Language : English

  120. Default : No

  121. Forced : No

  122. Original source medium : Blu-ray


  123. Menu

  124. 00:00:00.000 : 第 01 章

  125. 00:05:09.208 : 第 02 章

  126. 00:09:23.791 : 第 03 章

  127. 00:12:11.541 : 第 04 章

  128. 00:16:45.291 : 第 05 章

  129. 00:20:26.500 : 第 06 章

  130. 00:25:31.208 : 第 07 章

  131. 00:31:48.583 : 第 08 章

  132. 00:37:57.000 : 第 09 章

  133. 00:42:56.625 : 第 10 章

  134. 00:48:23.500 : 第 11 章

  135. 00:53:34.041 : 第 12 章

  136. 00:58:25.208 : 第 13 章

  137. 01:04:39.541 : 第 14 章

  138. 01:08:46.291 : 第 15 章

  139. 01:15:28.750 : 第 16 章

  140. 01:25:31.333 : 第 17 章

  141. 01:33:16.000 : 第 18 章






文件下载


除非特别注明,本文『反贪风暴4[国粤语配音/中文字幕].P.Storm.2019.1080p.BluRay.x265.10bit.DTS.2Audio 5.68GB』来源于互联网机器人自动抓取,非本站原创。 浮游电影网不对本文拥有版权,如有侵犯,请联系邮箱:fuyouu#yandex.com[#换成@]投诉。我们会在15个工作日内删除。 但烦请转载时请标明出处:“本文转载于『浮游电影网』,原文地址:https://www.fuyouu.com/14723.html

评论吧骚年!

发表你的见解   

昵称*

E-mail*(建议输入,以便收到博主回复的提示邮件)

验证码*

您可以使用eMule或eMule Mod(Windows)、aMule(Win、Linux、Mac)等软件下载eD2k链接。。
eMule收藏集(.emulecollection)文件是您选中的所有链接的列表文件。eMule可以直接下载它们。
按住SHIFT键选择可以选中多个选择框。
可用文件名和大小选择器来选择文件。
文件名选择器帮您根据文件名称或后缀来选择文件。不分大小写。
符号使用:
和:空格( )、+
不包含:-
或:|
转义:一对英文引号("");
匹配开头:^
匹配结尾:$
例如:
选中所有名称中包含有“eMule”或“0.49c”字眼,但不包含有“exe”字眼的:emule|0.49c -exe
选中所有名称的开头是“eMule”,结尾是“0.49c”的:^emule 0.49c$
选中所有名称中带有“eMule 0.49c”的(必须是“eMule 0.49c”,中间没有别的字符,不能是“eMule fake 0.49c”),需要转义:"emule 0.49c"
大小选择器帮您根据文件大小选择文件。