当前位置: 首页 >> 日韩电影 >> 杀人漫画[中文字幕].Killer.Toon.2013.1080p.FriDay.WEB-DL.H264.AAC 2.80GB >> 正文

杀人漫画[中文字幕].Killer.Toon.2013.1080p.FriDay.WEB-DL.H264.AAC 2.80GB

2021年10月04日 20:37:25     电影发布:来源于网络     电影分类:日韩电影     评论(0)    

杀人漫画[中文字幕].Killer.Toon.2013.1080p.FriDay.WEB DL.H264.AAC 2.80GB 悬疑片 犯罪片 惊悚片 日韩电影  第1张

◎译 名 杀人漫画 / 网络漫画:预告杀人 / 杀人网漫:预告杀人 / 漫画杀人 / Killer Toon( Q ?$ }8 q0 H0 t# c [

◎片 名 ? ?? : ????, z4 `+ {% g" {) N$ c2 d4 B

◎年 代 2013& S3 C$ ?1 x3 A# ?$ l0 R. W

◎产 地 韩国4 _6 d* s; e( L4 h+ H: a! X

◎类 别 悬疑 / 惊悚 / 犯罪

◎语 言 韩语9 y6 a% h) f. V5 k+ z2 Y2 W. m7 A

◎上映日期 2013-06-27(韩国)

◎IMDb链接 https://www.imdb.com/title/tt2973516/ `* i3 k9 A0 K! }% ^' i6 `

◎豆瓣评分 7.2/10 (58645人评价)

◎豆瓣链接 https://movie.douban.com/subject/24695966/

◎片 长 104分钟

◎导 演 金容钧 Yong-gyun Kim (id:1318814)

◎编 剧 Hoo-Kyoung Lee Hoo-Kyoung Lee (id:1333002)

Sang-hak Lee Sang-hak Lee (id:1333003)9 A/ k" Y& Q% l% _5 D" i" o

◎演 员 严基俊 Ki-joon Um (id:1275615)4 [$ W7 _5 }3 p: R0 x# u

李是英 Si-young Lee (id:1315572)

金显祐 Hyun-woo Kim (id:1319094)4 V* d, N" n5 G0 f, a [

吴光禄 Kwang-rok Oh (id:1203325)# d7 o* V. I7 E# s3 n- Q1 l

文正秀 Jung-soo Moon (id:1399895). K8 j3 g0 e$ u) J

申英奎 Young-kyu Shin (id:1420630)+ h: U' {) h) n3 Q' b

金素妍 So-yeon Kim (id:1424237). h$ | t, Q) v5 j/ g$ W3 U9 B

徐进元 Jin-won Seo (id:1437870)* b9 h& r L; z: \( @6 @

李道烨 Do-yup Lee (id:1437900)

金智怜 Ji-Young Kim (id:1399676): X# {/ y! q# q

金度英 Do-young Kim (id:1394430)

韩熙荣 Hee-jung Han (id:1384372)/ ~5 Y8 g& Y3 p3 h! U( _# v

文佳煐 Ka-young Mun (id:1339316)' I- w' u. K" e2 @ R6 [

金所泫 So-hyun Kim (id:1318725)# {5 j( @" M: H9 s) x; W

) F, B2 x) y( w

◎标 签 恐怖 / 韩国 / 惊悚 / 悬疑 / 犯罪 / 人性 / 2013 / 电影

◎简 介

当红网络恐怖漫画作家姜知允(李诗英 饰)新作接连问世,备受好评。而生活中她似乎越来越分不清现实和虚幻的界限,不仅经常遭遇极度逼真的恐怖噩梦,身上还常出现莫名其妙的伤口。某个夜晚,姜作家的责编徐美珍以极其残忍的方式自虐身亡,而其死亡过程和现场惨状竟与姜作家不久刚刚发给她的新作内容如出一辙。未过多久,又发生了一起和漫画内容相似的殡仪馆杀人事件。盆唐警局刑警琪哲(严基俊 饰)和后辈金永秀(金显祐 饰)介入调查,并慢慢追踪到姜作家鲜为人知的背景。

霓虹灯下鬼影幢幢,每个人心中都有不愿为人知晓的秘密,冤有头,债有主。因果报应,毫厘不爽……6 e% Y" Z% ]; J) _

  1. ##### MediaInfo ######: L9 \* |/ ]- N$ u

  2. General

  3. Unique ID : 278189646952169831813417342510276933381 (0xD149608B7C1E598EC2EB7AE315ADF705)

  4. Complete name : [email protected]kv

  5. Format : Matroska

  6. Format version : Version 4

  7. File size : 2.79 GiB

  8. Duration : 1 h 44 min

  9. Overall bit rate : 3 840 kb/s

  10. Encoded date : UTC 2021-10-02 23:52:55

  11. Writing application : mkvmerge v56.1.0 ('My Friend') 64-bit

  12. Writing library : libebml v1.4.2 + libmatroska v1.6.4


  13. Video

  14. ID : 1

  15. Format : AVC

  16. Format/Info : Advanced Video Codec

  17. Format profile : [email protected]

  18. Format settings : CABAC / 1 Ref Frames

  19. Format settings, CABAC : Yes

  20. Format settings, Reference frames : 1 frame

  21. Format settings, GOP : M=1, N=60

  22. Codec ID : V_MPEG4/ISO/AVC

  23. Duration : 1 h 44 min

  24. Bit rate mode : Constant

  25. Bit rate : 3 711 kb/s

  26. Nominal bit rate : 4 000 kb/s

  27. Width : 1 920 pixels

  28. Height : 1 080 pixels

  29. Display aspect ratio : 16:9

  30. Frame rate mode : Constant

  31. Frame rate : 29.970 (30000/1001/53354) FPS

  32. Color space : YUV

  33. Chroma subsampling : 4:2:0

  34. Bit depth : 8 bits

  35. Scan type : Progressive

  36. Bits/(Pixel*Frame) : 0.060

  37. Stream size : 2.70 GiB (97%)

  38. Default : Yes

  39. Forced : No


  40. Audio

  41. ID : 2

  42. Format : AAC LC

  43. Format/Info : Advanced Audio Codec Low Complexity

  44. Codec ID : A_AAC-2

  45. Duration : 1 h 44 min

  46. Bit rate : 125 kb/s

  47. Channel(s) : 2 channels

  48. Channel layout : L R

  49. Sampling rate : 48.0 kHz

  50. Frame rate : 46.875 FPS (1024 SPF)

  51. Compression mode : Lossy

  52. Stream size : 93.5 MiB (3%)

  53. Language : Korean

  54. Default : Yes

  55. Forced : No


  56. Text #1

  57. ID : 3

  58. Format : UTF-8

  59. Codec ID : S_TEXT/UTF8

  60. Codec ID/Info : UTF-8 Plain Text

  61. Duration : 1 h 38 min

  62. Bit rate : 32 b/s

  63. Count of elements : 1037

  64. Stream size : 23.4 KiB (0%)

  65. Title : Chinese Simplified

  66. Language : Chinese

  67. Default : Yes

  68. Forced : No


  69. Text #2

  70. ID : 4

  71. Format : UTF-8

  72. Codec ID : S_TEXT/UTF8

  73. Codec ID/Info : UTF-8 Plain Text

  74. Duration : 1 h 38 min

  75. Bit rate : 32 b/s

  76. Count of elements : 1037

  77. Stream size : 23.4 KiB (0%)

  78. Title : Chinese Traditional

  79. Language : Chinese

  80. Default : No

  81. Forced : No




复制代码


文件下载


除非特别注明,本文『杀人漫画[中文字幕].Killer.Toon.2013.1080p.FriDay.WEB-DL.H264.AAC 2.80GB』来源于互联网机器人自动抓取,非本站原创。 浮游电影网不对本文拥有版权,如有侵犯,请联系邮箱:fuyouu#yandex.com[#换成@]投诉。我们会在15个工作日内删除。 但烦请转载时请标明出处:“本文转载于『浮游电影网』,原文地址:https://www.fuyouu.com/14722.html

评论吧骚年!

发表你的见解   

昵称*

E-mail*(建议输入,以便收到博主回复的提示邮件)

验证码*

您可以使用eMule或eMule Mod(Windows)、aMule(Win、Linux、Mac)等软件下载eD2k链接。。
eMule收藏集(.emulecollection)文件是您选中的所有链接的列表文件。eMule可以直接下载它们。
按住SHIFT键选择可以选中多个选择框。
可用文件名和大小选择器来选择文件。
文件名选择器帮您根据文件名称或后缀来选择文件。不分大小写。
符号使用:
和:空格( )、+
不包含:-
或:|
转义:一对英文引号("");
匹配开头:^
匹配结尾:$
例如:
选中所有名称中包含有“eMule”或“0.49c”字眼,但不包含有“exe”字眼的:emule|0.49c -exe
选中所有名称的开头是“eMule”,结尾是“0.49c”的:^emule 0.49c$
选中所有名称中带有“eMule 0.49c”的(必须是“eMule 0.49c”,中间没有别的字符,不能是“eMule fake 0.49c”),需要转义:"emule 0.49c"
大小选择器帮您根据文件大小选择文件。