当前位置: 首页 >> 港台电影 >> 怒火·重案[国粤双语/中文字幕].Crossfire.2021.1080p.WEB-DL.H264.DD5.1.2Audio 42.18GB >> 正文

怒火·重案[国粤双语/中文字幕].Crossfire.2021.1080p.WEB-DL.H264.DD5.1.2Audio 42.18GB

2021年10月02日 20:52:13     电影发布:来源于网络     电影分类:港台电影     评论(0)    

怒火·重案[国粤双语/中文字幕].Crossfire.2021.1080p.WEB DL.H264.DD5.1.2Audio 42.18GB 犯罪片 动作片 港台电影  第1张

◎译 名 怒火·重案 / 怒火重案 / 怒火战 / 火拼 / Crossfire / Raging Fire

◎片 名 怒火

◎年 代 2021

◎产 地 中国香港 / 中国大陆

◎类 别 动作 / 犯罪

◎语 言 粤语 / 汉语普通话

◎上映日期 2021-07-30(中国大陆) / 2021-08-19(中国香港)

◎IMDb链接 https://www.imdb.com/title/tt8165192/

◎豆瓣评分 7.5/10 (264429人评价)

◎豆瓣链接 https://movie.douban.com/subject/30174085/

◎片 长 128分钟

◎导 演 陈木胜 Benny Chan (id:1274293)

◎编 剧 陈木胜 Benny Chan (id:1274293)

凌伟骏 Ryan Wai-Chun Ling (id:1433091)

唐耀良 Yiu-leung Tong (id:1364033)

◎演 员 甄子丹 Donnie Yen (id:1025194)

谢霆锋 Nicholas Tse (id:1050053)

秦岚 Lan Qin (id:1274294)

谭耀文 Patrick Tam (id:1033280)

黄德斌 Tak-bun Wong (id:1274442)

吴浩康 Deep Ng (id:1313361)

何珮瑜 Jeana Ho (id:1316213)

杨天宇 Angus Yeung (id:1387692)

汤君慈 Bruce Tong (id:1339998)

麦亨利 Henry Mai (id:1377803)

喻亢 Kang Yu (id:1339113)

张文杰 Man Kit Cheung (id:1336383)

胡子彤 Tony Tsz-Tung Wu (id:1362877)

吕良伟 Ray Lui (id:1037706)

任达华 Simon Yam (id:1031194)

袁富华 Fu-wah Yuen (id:1359508)

林国斌 Ben Lam (id:1289293)

卢惠光 Ken Lo (id:1032633)

陈家乐 Carlos Chan (id:1275972)

张国强 Kwok Keung Cheung (id:1274568)

汤怡 Kathy Tong (id:1314475)

高战 Chris Collins (id:1379355)

辛格·哈提汗·比托 Singh Hartihan Bitto (id:1333958)

克里斯·柯林斯 K.C. Collins (id:1338050)

郭政鸿 Jing-hung Kwok (id:1044122)

麦长青 Cheung-Ching Mak (id:1274580)

陈木胜 Benny Chan (id:1274293)

甄子丹 Donnie Yen (id:1025194)

邵剑秋 Kim-Chau Shiu (id:1413263)

陈一奇 Yiqi Chen (id:1446359)

程武 Wu Cheng (id:1406349)

杨受成 Albert Yeung (id:1313455)

高莉 Anna Gao (id:1432407)

郑志昊 Zhihao Zheng (id:1397531)

李绮雯 Yee-Man Lee (id:1353241)

杨雪雯 (id:1450635)

区椲麟 (id:1450636)

梁琳 Lin Liang (id:1400716)

黎子良 Bernard Lai (id:1438022)

林明杰 Eric Lin (id:1374637)

张博 (id:1450637)

张康达 Hong Tat Cheung (id:1395690)

谢炀 (id:1450638)

◎标 签 警匪 / 中国香港 / 动作 / 枪战 / 犯罪 / 2021 / 悬疑 / 中国大陆

◎简 介

重案组布网围剿国际毒枭,突然杀出一组蒙面悍匪“黑吃黑”,更冷血屠杀众警察。重案组督察张崇邦(甄子丹 饰)亲睹战友被杀,深入追查发现,悍匪首领竟是昔日战友邱刚敖(谢霆锋 饰)。原来敖也曾是警队明日之星,而将敖推向罪恶深渊的人,却正是邦。宿命令二人再次纠缠,一切恩怨张崇邦如何作出了断……

  1. ##### MediaInfo ######

  2. General

  3. Unique ID : 115324813373860287512723676803770773062 (0x56C2C04AC2C159CF7F1CC12786526E46)

  4. Complete name : 怒火·重案[email protected]OM.mkv

  5. Format : Matroska

  6. Format version : Version 4

  7. File size : 42.2 GiB

  8. Duration : 2 h 8 min

  9. Overall bit rate : 47.0 Mb/s

  10. Encoded date : UTC 2021-10-01 12:54:12

  11. Writing application : mkvmerge v51.0.0 ('I Wish') 64-bit

  12. Writing library : libebml v1.4.0 + libmatroska v1.6.2


  13. Video

  14. ID : 1

  15. Format : AVC

  16. Format/Info : Advanced Video Codec

  17. Format profile : [email protected]

  18. Format settings : CABAC / 4 Ref Frames

  19. Format settings, CABAC : Yes

  20. Format settings, Reference frames : 4 frames

  21. Format settings, GOP : M=4, N=24

  22. Codec ID : V_MPEG4/ISO/AVC

  23. Duration : 2 h 8 min

  24. Bit rate : 46.3 Mb/s

  25. Width : 2 048 pixels

  26. Height : 858 pixels

  27. Display aspect ratio : 2.40:1

  28. Frame rate mode : Constant

  29. Frame rate : 24.000 FPS

  30. Color space : YUV

  31. Chroma subsampling : 4:2:0

  32. Bit depth : 8 bits

  33. Scan type : Progressive

  34. Bits/(Pixel*Frame) : 1.097

  35. Stream size : 41.5 GiB (98%)

  36. Language : English

  37. Default : Yes

  38. Forced : No

  39. Color range : Limited

  40. Color primaries : BT.709

  41. Transfer characteristics : BT.709

  42. Matrix coefficients : BT.709


  43. Audio #1

  44. ID : 2

  45. Format : AC-3

  46. Format/Info : Audio Coding 3

  47. Commercial name : Dolby Digital

  48. Codec ID : A_AC3

  49. Duration : 2 h 8 min

  50. Bit rate mode : Constant

  51. Bit rate : 384 kb/s

  52. Channel(s) : 6 channels

  53. Channel layout : L R C LFE Ls Rs

  54. Sampling rate : 48.0 kHz

  55. Frame rate : 31.250 FPS (1536 SPF)

  56. Compression mode : Lossy

  57. Stream size : 353 MiB (1%)

  58. Title : 国语

  59. Service kind : Complete Main

  60. Default : Yes

  61. Forced : No


  62. Audio #2

  63. ID : 3

  64. Format : AC-3

  65. Format/Info : Audio Coding 3

  66. Commercial name : Dolby Digital

  67. Codec ID : A_AC3

  68. Duration : 2 h 8 min

  69. Bit rate mode : Constant

  70. Bit rate : 384 kb/s

  71. Channel(s) : 6 channels

  72. Channel layout : L R C LFE Ls Rs

  73. Sampling rate : 48.0 kHz

  74. Frame rate : 31.250 FPS (1536 SPF)

  75. Compression mode : Lossy

  76. Stream size : 353 MiB (1%)

  77. Title : 粤语

  78. Service kind : Complete Main

  79. Default : No

  80. Forced : No




复制代码



文件下载


除非特别注明,本文『怒火·重案[国粤双语/中文字幕].Crossfire.2021.1080p.WEB-DL.H264.DD5.1.2Audio 42.18GB』来源于互联网机器人自动抓取,非本站原创。 浮游电影网不对本文拥有版权,如有侵犯,请联系邮箱:fuyouu#yandex.com[#换成@]投诉。我们会在15个工作日内删除。 但烦请转载时请标明出处:“本文转载于『浮游电影网』,原文地址:https://www.fuyouu.com/14712.html

评论吧骚年!

发表你的见解   

昵称*

E-mail*(建议输入,以便收到博主回复的提示邮件)

验证码*

您可以使用eMule或eMule Mod(Windows)、aMule(Win、Linux、Mac)等软件下载eD2k链接。。
eMule收藏集(.emulecollection)文件是您选中的所有链接的列表文件。eMule可以直接下载它们。
按住SHIFT键选择可以选中多个选择框。
可用文件名和大小选择器来选择文件。
文件名选择器帮您根据文件名称或后缀来选择文件。不分大小写。
符号使用:
和:空格( )、+
不包含:-
或:|
转义:一对英文引号("");
匹配开头:^
匹配结尾:$
例如:
选中所有名称中包含有“eMule”或“0.49c”字眼,但不包含有“exe”字眼的:emule|0.49c -exe
选中所有名称的开头是“eMule”,结尾是“0.49c”的:^emule 0.49c$
选中所有名称中带有“eMule 0.49c”的(必须是“eMule 0.49c”,中间没有别的字符,不能是“eMule fake 0.49c”),需要转义:"emule 0.49c"
大小选择器帮您根据文件大小选择文件。