当前位置: 首页 >> 海外电影 >> 幻觉之书[中文字幕].The.Book.of.Vision.2020.1080p.FriDay.WEB-DL.H264.AAC 2.56GB >> 正文

幻觉之书[中文字幕].The.Book.of.Vision.2020.1080p.FriDay.WEB-DL.H264.AAC 2.56GB

2021年10月02日 20:51:10     电影发布:来源于网络     电影分类:海外电影     评论(0)    

幻觉之书[中文字幕].The.Book.of.Vision.2020.1080p.FriDay.WEB DL.H264.AAC 2.56GB 剧情片 海外电影  第1张

◎译 名 幻觉之书

◎片 名 The Book of Vision

◎年 代 2020

◎产 地 意大利 / 英国 / 比利时 / 德国

◎类 别 剧情

◎语 言 英语

◎上映日期 2020-09-02(威尼斯电影节)

◎IMDb链接 https://www.imdb.com/title/tt4016312/

◎豆瓣评分 5.9/10 (164人评价)

◎豆瓣链接 https://movie.douban.com/subject/26354675/

◎片 长 95分钟

◎导 演 卡罗·辛特曼 Carlo Hintermann (id:1442618)

◎编 剧 卡罗·辛特曼 Carlo Hintermann (id:1442618)

◎演 员 查尔斯·丹斯 Charles Dance (id:1027299)

洛特·弗贝克 Lotte Verbeek (id:1009738)

斯瓦利尔·古德纳松 Sverrir Gudnason (id:1050003)

薇拉·菲拉托娃 Vera Filatova (id:1040734)

伊索尔达·戴查克 Isolda Dychauk (id:1247129)

菲利波·尼格鲁 Filippo Nigro (id:1037267)

吉塞尔达·沃洛迪 Giselda Volodi (id:1300176)

贾斯汀·科罗夫金 Justin Korovkin (id:1443082)

泰伦斯·马力克 Terrence Malick (id:1036442)

◎标 签 2020 / 英国 / 意大利 / 剧情 / 悬疑 / 洛特·弗贝克 / 查尔斯·丹斯 / 电影

◎简 介

故事讲述弗贝克饰演的年轻医生艾娃,偶然发现一本18世纪的神秘笔记,随着深入研究,她也逐渐发现了笔记中的秘密。影片将采用古今两条故事,发展双线剧情,丹斯将出现在现代部分,饰演一名俄罗斯医生。

◎获奖情况 (共3项)

第77届威尼斯电影节 (2020)

国际影评人周奖(提名)

└──卡罗·辛特曼 (id:1442618)

第66届意大利大卫奖 (2021)

最佳视觉效果(提名)

第4届平遥国际电影展 (2020)

卧虎单元最受欢迎影片(提名)

└──卡罗·辛特曼 (id:1442618)

  1. ##### MediaInfo ######

  2. General

  3. Unique ID : 224640995936734547853492312495756359508 (0xA9004836786E48C3DDD00A7D521F3754)

  4. Complete name : The.Book.of.Vis[email protected]

  5. Format : Matroska

  6. Format version : Version 4

  7. File size : 2.56 GiB

  8. Duration : 1 h 38 min

  9. Overall bit rate : 3 708 kb/s

  10. Encoded date : UTC 2021-10-01 03:30:39

  11. Writing application : mkvmerge v56.1.0 ('My Friend') 64-bit

  12. Writing library : libebml v1.4.2 + libmatroska v1.6.4


  13. Video

  14. ID : 1

  15. Format : AVC

  16. Format/Info : Advanced Video Codec

  17. Format profile : [email protected]

  18. Format settings : CABAC / 1 Ref Frames

  19. Format settings, CABAC : Yes

  20. Format settings, Reference frames : 1 frame

  21. Format settings, GOP : M=1, N=60

  22. Codec ID : V_MPEG4/ISO/AVC

  23. Duration : 1 h 38 min

  24. Bit rate mode : Constant

  25. Bit rate : 3 580 kb/s

  26. Nominal bit rate : 4 000 kb/s

  27. Width : 1 920 pixels

  28. Height : 1 080 pixels

  29. Display aspect ratio : 16:9

  30. Frame rate mode : Constant

  31. Frame rate : 29.970 (30000/1001/53354) FPS

  32. Color space : YUV

  33. Chroma subsampling : 4:2:0

  34. Bit depth : 8 bits

  35. Scan type : Progressive

  36. Bits/(Pixel*Frame) : 0.058

  37. Stream size : 2.47 GiB (97%)

  38. Language : English

  39. Default : Yes

  40. Forced : No


  41. Audio

  42. ID : 2

  43. Format : AAC LC

  44. Format/Info : Advanced Audio Codec Low Complexity

  45. Codec ID : A_AAC-2

  46. Duration : 1 h 38 min

  47. Bit rate : 125 kb/s

  48. Channel(s) : 2 channels

  49. Channel layout : L R

  50. Sampling rate : 48.0 kHz

  51. Frame rate : 46.875 FPS (1024 SPF)

  52. Compression mode : Lossy

  53. Stream size : 88.5 MiB (3%)

  54. Title : English

  55. Language : English

  56. Default : Yes

  57. Forced : No


  58. Text #1

  59. ID : 3

  60. Format : UTF-8

  61. Codec ID : S_TEXT/UTF8

  62. Codec ID/Info : UTF-8 Plain Text

  63. Duration : 1 h 30 min

  64. Bit rate : 28 b/s

  65. Count of elements : 809

  66. Stream size : 19.0 KiB (0%)

  67. Title : Chinese Simplified

  68. Language : Chinese

  69. Default : Yes

  70. Forced : No


  71. Text #2

  72. ID : 4

  73. Format : UTF-8

  74. Codec ID : S_TEXT/UTF8

  75. Codec ID/Info : UTF-8 Plain Text

  76. Duration : 1 h 30 min

  77. Bit rate : 28 b/s

  78. Count of elements : 809

  79. Stream size : 19.0 KiB (0%)

  80. Title : Chinese Traditional

  81. Language : Chinese

  82. Default : No

  83. Forced : No




复制代码



文件下载


除非特别注明,本文『幻觉之书[中文字幕].The.Book.of.Vision.2020.1080p.FriDay.WEB-DL.H264.AAC 2.56GB』来源于互联网机器人自动抓取,非本站原创。 浮游电影网不对本文拥有版权,如有侵犯,请联系邮箱:fuyouu#yandex.com[#换成@]投诉。我们会在15个工作日内删除。 但烦请转载时请标明出处:“本文转载于『浮游电影网』,原文地址:https://www.fuyouu.com/14711.html

评论吧骚年!

发表你的见解   

昵称*

E-mail*(建议输入,以便收到博主回复的提示邮件)

验证码*

您可以使用eMule或eMule Mod(Windows)、aMule(Win、Linux、Mac)等软件下载eD2k链接。。
eMule收藏集(.emulecollection)文件是您选中的所有链接的列表文件。eMule可以直接下载它们。
按住SHIFT键选择可以选中多个选择框。
可用文件名和大小选择器来选择文件。
文件名选择器帮您根据文件名称或后缀来选择文件。不分大小写。
符号使用:
和:空格( )、+
不包含:-
或:|
转义:一对英文引号("");
匹配开头:^
匹配结尾:$
例如:
选中所有名称中包含有“eMule”或“0.49c”字眼,但不包含有“exe”字眼的:emule|0.49c -exe
选中所有名称的开头是“eMule”,结尾是“0.49c”的:^emule 0.49c$
选中所有名称中带有“eMule 0.49c”的(必须是“eMule 0.49c”,中间没有别的字符,不能是“eMule fake 0.49c”),需要转义:"emule 0.49c"
大小选择器帮您根据文件大小选择文件。