当前位置: 首页 >> 日韩电影 >> 命运疾走中[中文字幕].Jam.2018.1080p.FriDay.WEB-DL.H264.AAC 2.64GB >> 正文

命运疾走中[中文字幕].Jam.2018.1080p.FriDay.WEB-DL.H264.AAC 2.64GB

2021年10月02日 20:50:09     电影发布:来源于网络     电影分类:日韩电影     评论(0)    

命运疾走中[中文字幕].Jam.2018.1080p.FriDay.WEB DL.H264.AAC 2.64GB 剧情片 日韩电影  第1张

◎译 名 命运疾走中

◎片 名 jam

◎年 代 2018

◎产 地 日本

◎类 别 剧情

◎语 言 日语

◎上映日期 2018-12-01(日本)

◎IMDb链接 https://www.imdb.com/title/tt9238590/

◎豆瓣评分 6.3/10 (254人评价)

◎豆瓣链接 https://movie.douban.com/subject/30345352/

◎片 长 102分钟

◎导 演 萨布 SABU (id:1041685)

◎编 剧 萨布 SABU (id:1041685)

◎演 员 青柳翔 Sho Aoyagi (id:1316817)

町田启太 Keita Machida (id:1326403)

铃木伸之 Nobuyuki Suzuki (id:1326402)

秋山真太郎 Shintarō Akiyama (id:1317927)

筒井真理子 Mariko Tsutsui (id:1328157)

渡边杉枝 Sugie Watanabe (id:1444748)

中林千賀子 Chikako Nakabayashi (id:1457326)

◎标 签 日本 / 町田启太 / 2018 / 萨布 / 日本电影 / 铃木伸之 / 青柳翔 / 剧情

◎简 介

“师奶杀手”兼“演歌小天王”阿浩遭疯狂粉丝绑架,软硬皆施胁迫他写歌并在隔天的演唱会上发表。阿建因女友遭流弹攻击陷入昏迷,自此轻信邪教每日行善三回,只求女友早日苏醒。速甫出狱的铁雄难逃黑道追杀,昔日阴霾紧跟在后。看似无关的三人,命运却早已布好局,各自喷发发展又彼此交缠,惊人结局一触即发。

鬼才导演SABU与日本男演员剧团“剧团EXILE”合作,塑造出这部结合悬疑、惊悚、爱情、动作的超快感新作。剧团EXILE当家男演员青柳翔、铃木伸之、町田启太领衔主演,无论是扭曲的爱、奉献的疑云、罪恶的阴影,天堂地狱就在一线之间。筒井真理子饰演疯狂的女性也令人印象深刻。SABU依旧保持了他的风格水准,为量身订造划下了难以超越的高标。

  1. ##### MediaInfo ######

  2. General

  3. Unique ID : 218015293571176166608124393613835490060 (0xA40437DD6AD5A86F11FB89DA7E3DD30C)

  4. Complete name : [email protected]

  5. Format : Matroska

  6. Format version : Version 4

  7. File size : 2.64 GiB

  8. Duration : 1 h 41 min

  9. Overall bit rate : 3 708 kb/s

  10. Encoded date : UTC 2021-10-01 08:34:14

  11. Writing application : mkvmerge v56.1.0 ('My Friend') 64-bit

  12. Writing library : libebml v1.4.2 + libmatroska v1.6.4


  13. Video

  14. ID : 1

  15. Format : AVC

  16. Format/Info : Advanced Video Codec

  17. Format profile : [email protected]

  18. Format settings : CABAC / 1 Ref Frames

  19. Format settings, CABAC : Yes

  20. Format settings, Reference frames : 1 frame

  21. Format settings, GOP : M=1, N=60

  22. Codec ID : V_MPEG4/ISO/AVC

  23. Duration : 1 h 41 min

  24. Bit rate mode : Constant

  25. Bit rate : 3 580 kb/s

  26. Nominal bit rate : 4 000 kb/s

  27. Width : 1 920 pixels

  28. Height : 1 080 pixels

  29. Display aspect ratio : 16:9

  30. Frame rate mode : Constant

  31. Frame rate : 29.970 (30000/1001/53354) FPS

  32. Color space : YUV

  33. Chroma subsampling : 4:2:0

  34. Bit depth : 8 bits

  35. Scan type : Progressive

  36. Bits/(Pixel*Frame) : 0.058

  37. Stream size : 2.54 GiB (97%)

  38. Language : English

  39. Default : Yes

  40. Forced : No


  41. Audio

  42. ID : 2

  43. Format : AAC LC

  44. Format/Info : Advanced Audio Codec Low Complexity

  45. Codec ID : A_AAC-2

  46. Duration : 1 h 41 min

  47. Bit rate : 125 kb/s

  48. Channel(s) : 2 channels

  49. Channel layout : L R

  50. Sampling rate : 48.0 kHz

  51. Frame rate : 46.875 FPS (1024 SPF)

  52. Compression mode : Lossy

  53. Stream size : 91.3 MiB (3%)

  54. Title : Japanese

  55. Language : Japanese

  56. Default : Yes

  57. Forced : No


  58. Text #1

  59. ID : 3

  60. Format : UTF-8

  61. Codec ID : S_TEXT/UTF8

  62. Codec ID/Info : UTF-8 Plain Text

  63. Duration : 1 h 40 min

  64. Bit rate : 22 b/s

  65. Count of elements : 818

  66. Stream size : 16.5 KiB (0%)

  67. Title : Chinese Simplified

  68. Language : Chinese

  69. Default : Yes

  70. Forced : No


  71. Text #2

  72. ID : 4

  73. Format : UTF-8

  74. Codec ID : S_TEXT/UTF8

  75. Codec ID/Info : UTF-8 Plain Text

  76. Duration : 1 h 40 min

  77. Bit rate : 22 b/s

  78. Count of elements : 818

  79. Stream size : 16.5 KiB (0%)

  80. Title : Chinese Traditional

  81. Language : Chinese

  82. Default : No

  83. Forced : No




复制代码



文件下载


除非特别注明,本文『命运疾走中[中文字幕].Jam.2018.1080p.FriDay.WEB-DL.H264.AAC 2.64GB』来源于互联网机器人自动抓取,非本站原创。 浮游电影网不对本文拥有版权,如有侵犯,请联系邮箱:fuyouu#yandex.com[#换成@]投诉。我们会在15个工作日内删除。 但烦请转载时请标明出处:“本文转载于『浮游电影网』,原文地址:https://www.fuyouu.com/14710.html

评论吧骚年!

发表你的见解   

昵称*

E-mail*(建议输入,以便收到博主回复的提示邮件)

验证码*

您可以使用eMule或eMule Mod(Windows)、aMule(Win、Linux、Mac)等软件下载eD2k链接。。
eMule收藏集(.emulecollection)文件是您选中的所有链接的列表文件。eMule可以直接下载它们。
按住SHIFT键选择可以选中多个选择框。
可用文件名和大小选择器来选择文件。
文件名选择器帮您根据文件名称或后缀来选择文件。不分大小写。
符号使用:
和:空格( )、+
不包含:-
或:|
转义:一对英文引号("");
匹配开头:^
匹配结尾:$
例如:
选中所有名称中包含有“eMule”或“0.49c”字眼,但不包含有“exe”字眼的:emule|0.49c -exe
选中所有名称的开头是“eMule”,结尾是“0.49c”的:^emule 0.49c$
选中所有名称中带有“eMule 0.49c”的(必须是“eMule 0.49c”,中间没有别的字符,不能是“eMule fake 0.49c”),需要转义:"emule 0.49c"
大小选择器帮您根据文件大小选择文件。