当前位置: 首页 >> 港台电影 >> 怒火·重案[国粤配音/中文字幕].Raging.Fire.2021.WEB-DL.4K.H265.DDP.5.1 6.14GB >> 正文

怒火·重案[国粤配音/中文字幕].Raging.Fire.2021.WEB-DL.4K.H265.DDP.5.1 6.14GB

2021年10月02日 20:49:06     电影发布:来源于网络     电影分类:港台电影     评论(0)    

怒火·重案[国粤配音/中文字幕].Raging.Fire.2021.WEB DL.4K.H265.DDP.5.1 6.14GB 犯罪片 动作片 港台电影  第1张

◎译 名 怒火·重案 / 怒火重案 / 怒火战 / 火拼 / Crossfire / Raging Fire

◎片 名 怒火

◎年 代 2021

◎产 地 中国香港 / 中国大陆

◎类 别 动作 / 犯罪

◎语 言 粤语 / 汉语普通话

◎上映日期 2021-07-30(中国大陆) / 2021-08-19(中国香港)

◎IMDb链接 https://www.imdb.com/title/tt8165192/

◎豆瓣评分 7.5/10 (264429人评价)

◎豆瓣链接 https://movie.douban.com/subject/30174085/

◎片 长 128分钟

◎导 演 陈木胜 Benny Chan (id:1274293)

◎编 剧 陈木胜 Benny Chan (id:1274293)

凌伟骏 Ryan Wai-Chun Ling (id:1433091)

唐耀良 Yiu-leung Tong (id:1364033)

◎演 员 甄子丹 Donnie Yen (id:1025194)

谢霆锋 Nicholas Tse (id:1050053)

秦岚 Lan Qin (id:1274294)

谭耀文 Patrick Tam (id:1033280)

黄德斌 Tak-bun Wong (id:1274442)

吴浩康 Deep Ng (id:1313361)

何珮瑜 Jeana Ho (id:1316213)

杨天宇 Angus Yeung (id:1387692)

汤君慈 Bruce Tong (id:1339998)

麦亨利 Henry Mai (id:1377803)

喻亢 Kang Yu (id:1339113)

张文杰 Man Kit Cheung (id:1336383)

胡子彤 Tony Tsz-Tung Wu (id:1362877)

吕良伟 Ray Lui (id:1037706)

任达华 Simon Yam (id:1031194)

袁富华 Fu-wah Yuen (id:1359508)

林国斌 Ben Lam (id:1289293)

卢惠光 Ken Lo (id:1032633)

陈家乐 Carlos Chan (id:1275972)

张国强 Kwok Keung Cheung (id:1274568)

汤怡 Kathy Tong (id:1314475)

高战 Chris Collins (id:1379355)

辛格·哈提汗·比托 Singh Hartihan Bitto (id:1333958)

克里斯·柯林斯 K.C. Collins (id:1338050)

郭政鸿 Jing-hung Kwok (id:1044122)

麦长青 Cheung-Ching Mak (id:1274580)

陈木胜 Benny Chan (id:1274293)

甄子丹 Donnie Yen (id:1025194)

邵剑秋 Kim-Chau Shiu (id:1413263)

陈一奇 Yiqi Chen (id:1446359)

程武 Wu Cheng (id:1406349)

杨受成 Albert Yeung (id:1313455)

高莉 Anna Gao (id:1432407)

郑志昊 Zhihao Zheng (id:1397531)

李绮雯 Yee-Man Lee (id:1353241)

杨雪雯 (id:1450635)

区椲麟 (id:1450636)

梁琳 Lin Liang (id:1400716)

黎子良 Bernard Lai (id:1438022)

林明杰 Eric Lin (id:1374637)

张博 (id:1450637)

张康达 Hong Tat Cheung (id:1395690)

谢炀 (id:1450638)

◎标 签 警匪 / 中国香港 / 动作 / 枪战 / 犯罪 / 2021 / 悬疑 / 中国大陆

◎简 介

重案组布网围剿国际毒枭,突然杀出一组蒙面悍匪“黑吃黑”,更冷血屠杀众警察。重案组督察张崇邦(甄子丹 饰)亲睹战友被杀,深入追查发现,悍匪首领竟是昔日战友邱刚敖(谢霆锋 饰)。原来敖也曾是警队明日之星,而将敖推向罪恶深渊的人,却正是邦。宿命令二人再次纠缠,一切恩怨张崇邦如何作出了断……

  1. ##### MediaInfo ######

  2. General

  3. Unique ID : 9616212023306184950892537773813773733 (0x73C03DB8B46332005EAFA67D6E1B5A5)

  4. Complete name : Raging Fire 2021 WEB-DL 4K H265 DDP [email protected]

  5. Format : Matroska

  6. Format version : Version 4

  7. File size : 6.14 GiB

  8. Duration : 2 h 8 min

  9. Overall bit rate : 6 843 kb/s

  10. Encoded date : UTC 2021-10-01 02:10:01

  11. Writing application : mkvmerge v58.0.0 ('Supper's Ready') 64-bit

  12. Writing library : libebml v1.4.2 + libmatroska v1.6.4


  13. Video

  14. ID : 1

  15. Format : HEVC

  16. Format/Info : High Efficiency Video Coding

  17. Format profile : [email protected]@Main

  18. Codec ID : V_MPEGH/ISO/HEVC

  19. Duration : 2 h 8 min

  20. Bit rate : 5 948 kb/s

  21. Width : 3 840 pixels

  22. Height : 1 626 pixels

  23. Display aspect ratio : 2.35:1

  24. Frame rate mode : Constant

  25. Frame rate : 25.000 FPS

  26. Color space : YUV

  27. Chroma subsampling : 4:2:0

  28. Bit depth : 8 bits

  29. Bits/(Pixel*Frame) : 0.038

  30. Stream size : 5.34 GiB (87%)

  31. Writing library : HW265_Code

  32. Default : Yes

  33. Forced : No

  34. Color range : Limited

  35. Color primaries : BT.709

  36. Transfer characteristics : BT.709

  37. Matrix coefficients : BT.709


  38. Audio #1

  39. ID : 2

  40. Format : E-AC-3

  41. Format/Info : Enhanced AC-3

  42. Commercial name : Dolby Digital Plus

  43. Codec ID : A_EAC3

  44. Duration : 2 h 8 min

  45. Bit rate mode : Constant

  46. Bit rate : 256 kb/s

  47. Channel(s) : 6 channels

  48. Channel layout : L R C LFE Ls Rs

  49. Sampling rate : 48.0 kHz

  50. Frame rate : 31.250 FPS (1536 SPF)

  51. Compression mode : Lossy

  52. Stream size : 235 MiB (4%)

  53. Title : 国语 DDP 5.1

  54. Language : Chinese

  55. Service kind : Complete Main

  56. Default : Yes

  57. Forced : No


  58. Audio #2

  59. ID : 3

  60. Format : AAC LC

  61. Format/Info : Advanced Audio Codec Low Complexity

  62. Codec ID : A_AAC-2

  63. Duration : 2 h 8 min

  64. Bit rate : 192 kb/s

  65. Channel(s) : 2 channels

  66. Channel layout : L R

  67. Sampling rate : 48.0 kHz

  68. Frame rate : 46.875 FPS (1024 SPF)

  69. Compression mode : Lossy

  70. Stream size : 174 MiB (3%)

  71. Title : 国语 AAC 2.0

  72. Language : Chinese

  73. Default : No

  74. Forced : No


  75. Audio #3

  76. ID : 4

  77. Format : E-AC-3

  78. Format/Info : Enhanced AC-3

  79. Commercial name : Dolby Digital Plus

  80. Codec ID : A_EAC3

  81. Duration : 2 h 8 min

  82. Bit rate mode : Constant

  83. Bit rate : 256 kb/s

  84. Channel(s) : 6 channels

  85. Channel layout : L R C LFE Ls Rs

  86. Sampling rate : 48.0 kHz

  87. Frame rate : 31.250 FPS (1536 SPF)

  88. Compression mode : Lossy

  89. Stream size : 235 MiB (4%)

  90. Title : 粤语 DDP 5.1

  91. Language : Chinese

  92. Service kind : Complete Main

  93. Default : No

  94. Forced : No


  95. Audio #4

  96. ID : 5

  97. Format : AAC LC

  98. Format/Info : Advanced Audio Codec Low Complexity

  99. Codec ID : A_AAC-2

  100. Duration : 2 h 8 min

  101. Bit rate : 192 kb/s

  102. Channel(s) : 2 channels

  103. Channel layout : L R

  104. Sampling rate : 48.0 kHz

  105. Frame rate : 46.875 FPS (1024 SPF)

  106. Compression mode : Lossy

  107. Stream size : 174 MiB (3%)

  108. Title : 粤语 AAC 2.0

  109. Language : Chinese

  110. Default : No

  111. Forced : No




复制代码



文件下载


除非特别注明,本文『怒火·重案[国粤配音/中文字幕].Raging.Fire.2021.WEB-DL.4K.H265.DDP.5.1 6.14GB』来源于互联网机器人自动抓取,非本站原创。 浮游电影网不对本文拥有版权,如有侵犯,请联系邮箱:fuyouu#yandex.com[#换成@]投诉。我们会在15个工作日内删除。 但烦请转载时请标明出处:“本文转载于『浮游电影网』,原文地址:https://www.fuyouu.com/14709.html

评论吧骚年!

发表你的见解   

昵称*

E-mail*(建议输入,以便收到博主回复的提示邮件)

验证码*

您可以使用eMule或eMule Mod(Windows)、aMule(Win、Linux、Mac)等软件下载eD2k链接。。
eMule收藏集(.emulecollection)文件是您选中的所有链接的列表文件。eMule可以直接下载它们。
按住SHIFT键选择可以选中多个选择框。
可用文件名和大小选择器来选择文件。
文件名选择器帮您根据文件名称或后缀来选择文件。不分大小写。
符号使用:
和:空格( )、+
不包含:-
或:|
转义:一对英文引号("");
匹配开头:^
匹配结尾:$
例如:
选中所有名称中包含有“eMule”或“0.49c”字眼,但不包含有“exe”字眼的:emule|0.49c -exe
选中所有名称的开头是“eMule”,结尾是“0.49c”的:^emule 0.49c$
选中所有名称中带有“eMule 0.49c”的(必须是“eMule 0.49c”,中间没有别的字符,不能是“eMule fake 0.49c”),需要转义:"emule 0.49c"
大小选择器帮您根据文件大小选择文件。