当前位置: 首页 >> 日韩电影 >> 催眠[中文字幕].The.Hypnosis.2021.1080p.WEB-DL.H265.AAC 2.75GB >> 正文

催眠[中文字幕].The.Hypnosis.2021.1080p.WEB-DL.H265.AAC 2.75GB

2021年10月02日 20:48:03     电影发布:来源于网络     电影分类:日韩电影     评论(0)    

催眠[中文字幕].The.Hypnosis.2021.1080p.WEB DL.H265.AAC 2.75GB 恐怖片 惊悚片 日韩电影  第1张

◎译 名 催眠 / 催魂频率(台) / The Hypnosis

◎片 名 ??

◎年 代 2021

◎产 地 韩国

◎类 别 惊悚 / 恐怖

◎语 言 韩语

◎上映日期 2021-03-24(韩国)

◎IMDb链接 https://www.imdb.com/title/tt14406178/

◎豆瓣评分 5.3/10 (344人评价)

◎豆瓣链接 https://movie.douban.com/subject/35173935/

◎片 长 85分钟

◎导 演 崔在勋 Jae-Hoon Choi (id:1451500)

◎编 剧 崔在勋 Jae-Hoon Choi (id:1451500)

◎演 员 李大卫 David Lee (id:1326902)

申知原 Shin Ji Won (id:1389853)

金道勋 Do-hoon Kim (id:1396528)

南敏佑 Nam Min Woo (id:1452806)

金南优 Nam-woo Kim (id:1453062)

孙秉浩 Byung-ho Son (id:1024148)

徐宜淑 Yi-suk Seo (id:1377915)

李艺书 Lee Ye Seo (id:1457433)

◎标 签 惊悚 / 恐怖 / 韩国 / 悬疑 / 2021 / 韩国电影 / 犯罪 / 电影

◎简 介

过著充实大学生活的英文系学生都贤(李大卫 饰),偶然因为转学生振浩(金南优 饰)而对催眠产生兴趣。都贤在崔教授(孙昞昊 饰)的帮助下接受了催眠治疗,但在催眠体验后,他却开始看见充满疑惑的记忆幻影,朋友们也一个接一个开始深受幻影折磨,而遭遇奇怪的事件。崔教授对他们催眠的目的究竟为何?

  1. ##### MediaInfo ######

  2. General

  3. Unique ID : 297679340683026851262986008307345870477 (0xDFF2F4A282478FFE623D94C989274E8D)

  4. Complete name : [email protected]

  5. Format : Matroska

  6. Format version : Version 4

  7. File size : 2.75 GiB

  8. Duration : 1 h 25 min

  9. Overall bit rate : 4 615 kb/s

  10. Encoded date : UTC 2021-10-01 11:09:50

  11. Writing application : mkvmerge v56.1.0 ('My Friend') 64-bit

  12. Writing library : libebml v1.4.2 + libmatroska v1.6.4


  13. Video

  14. ID : 1

  15. Format : HEVC

  16. Format/Info : High Efficiency Video Coding

  17. Format profile : [email protected]@Main

  18. Codec ID : V_MPEGH/ISO/HEVC

  19. Duration : 1 h 25 min

  20. Bit rate : 4 423 kb/s

  21. Width : 1 920 pixels

  22. Height : 960 pixels

  23. Display aspect ratio : 2.000

  24. Frame rate mode : Constant

  25. Frame rate : 24.000 FPS

  26. Color space : YUV

  27. Chroma subsampling : 4:2:0

  28. Bit depth : 8 bits

  29. Bits/(Pixel*Frame) : 0.100

  30. Stream size : 2.63 GiB (96%)

  31. Default : Yes

  32. Forced : No


  33. Audio

  34. ID : 2

  35. Format : AAC LC

  36. Format/Info : Advanced Audio Codec Low Complexity

  37. Codec ID : A_AAC-2

  38. Duration : 1 h 25 min

  39. Bit rate : 192 kb/s

  40. Channel(s) : 2 channels

  41. Channel layout : L R

  42. Sampling rate : 44.1 kHz

  43. Frame rate : 43.066 FPS (1024 SPF)

  44. Compression mode : Lossy

  45. Stream size : 115 MiB (4%)

  46. Language : Korean

  47. Default : Yes

  48. Forced : No


  49. Text #1

  50. ID : 3

  51. Format : UTF-8

  52. Codec ID : S_TEXT/UTF8

  53. Codec ID/Info : UTF-8 Plain Text

  54. Duration : 1 h 21 min

  55. Bit rate : 33 b/s

  56. Count of elements : 753

  57. Stream size : 20.3 KiB (0%)

  58. Title : Chinese Simplified

  59. Language : Chinese

  60. Default : Yes

  61. Forced : No


  62. Text #2

  63. ID : 4

  64. Format : UTF-8

  65. Codec ID : S_TEXT/UTF8

  66. Codec ID/Info : UTF-8 Plain Text

  67. Duration : 1 h 21 min

  68. Bit rate : 33 b/s

  69. Count of elements : 752

  70. Stream size : 20.3 KiB (0%)

  71. Title : Chinese Traditional

  72. Language : Chinese

  73. Default : No

  74. Forced : No


  75. Text #3

  76. ID : 5

  77. Format : UTF-8

  78. Codec ID : S_TEXT/UTF8

  79. Codec ID/Info : UTF-8 Plain Text

  80. Duration : 1 h 21 min

  81. Bit rate : 33 b/s

  82. Count of elements : 754

  83. Stream size : 20.2 KiB (0%)

  84. Title : English

  85. Language : English

  86. Default : No

  87. Forced : No




复制代码



文件下载


除非特别注明,本文『催眠[中文字幕].The.Hypnosis.2021.1080p.WEB-DL.H265.AAC 2.75GB』来源于互联网机器人自动抓取,非本站原创。 浮游电影网不对本文拥有版权,如有侵犯,请联系邮箱:fuyouu#yandex.com[#换成@]投诉。我们会在15个工作日内删除。 但烦请转载时请标明出处:“本文转载于『浮游电影网』,原文地址:https://www.fuyouu.com/14708.html

评论吧骚年!

发表你的见解   

昵称*

E-mail*(建议输入,以便收到博主回复的提示邮件)

验证码*

您可以使用eMule或eMule Mod(Windows)、aMule(Win、Linux、Mac)等软件下载eD2k链接。。
eMule收藏集(.emulecollection)文件是您选中的所有链接的列表文件。eMule可以直接下载它们。
按住SHIFT键选择可以选中多个选择框。
可用文件名和大小选择器来选择文件。
文件名选择器帮您根据文件名称或后缀来选择文件。不分大小写。
符号使用:
和:空格( )、+
不包含:-
或:|
转义:一对英文引号("");
匹配开头:^
匹配结尾:$
例如:
选中所有名称中包含有“eMule”或“0.49c”字眼,但不包含有“exe”字眼的:emule|0.49c -exe
选中所有名称的开头是“eMule”,结尾是“0.49c”的:^emule 0.49c$
选中所有名称中带有“eMule 0.49c”的(必须是“eMule 0.49c”,中间没有别的字符,不能是“eMule fake 0.49c”),需要转义:"emule 0.49c"
大小选择器帮您根据文件大小选择文件。