当前位置: 首页 >> 港台电影 >> 反贪风暴3[国粤语配音/中文字幕].L.Storm.2018.1080p.BluRay.x265.10bit.DTS.2Audio 5.96GB >> 正文

反贪风暴3[国粤语配音/中文字幕].L.Storm.2018.1080p.BluRay.x265.10bit.DTS.2Audio 5.96GB

2021年10月02日 20:44:48     电影发布:来源于网络     电影分类:港台电影     评论(0)    

反贪风暴3[国粤语配音/中文字幕].L.Storm.2018.1080p.BluRay.x265.10bit.DTS.2Audio 5.96GB 犯罪片 动作片 剧情片 港台电影  第1张

◎译 名 反贪风暴3 / L Storm

◎片 名 L風暴

◎年 代 2018

◎产 地 中国香港

◎类 别 剧情 / 动作 / 犯罪

◎语 言 粤语 / 汉语普通话

◎上映日期 2018-09-14(中国大陆) / 2018-08-23(中国香港)

◎IMDb链接 https://www.imdb.com/title/tt8031554/

◎豆瓣评分 5.7/10 (106027人评价)

◎豆瓣链接 https://movie.douban.com/subject/26996640/

◎片 长 97分钟

◎导 演 林德禄 David Lam (id:1326068)

◎编 剧 黄浩华 Ho-Wa Wong (id:1340349)

何文龙 Wen Long Ho (id:1321987)

◎演 员 古天乐 Louis Koo (id:1027577)

张智霖 Julian Cheung (id:1050979)

郑嘉颖 Kevin Cheng (id:1274666)

邓丽欣 Stephy Tang (id:1028496)

栢天男 Adam Pak (id:1384345)

谢天华 Michael Tse (id:1010833)

张继聪 Louis Cheung (id:1316230)

夏嫣 Sheng (id:1326280)

蔡瀚亿 Babyjohn Choi (id:1335563)

廖启智 Kai Chi Liu (id:1274268)

谭耀文 Patrick Tam (id:1033280)

卢海鹏 Hoi-Pang Lo (id:1038772)

罗兰 Lan Law (id:1054340)

麦长青 Cheung-Ching Mak (id:1274580)

张松枝 Deno Cheung (id:1339097)

陈庭欣 Toby Chan (id:1354757)

丁海峰 Haifeng Ding (id:1275864)

冯雷 Lei Feng (id:1316572)

李昕岳 Xinyue Li (id:1323402)

宣萱 Jessica Hester Hsuan (id:1023521)

关礼杰 Eddie Kwan (id:1275598)

吴肇轩 Kenneth Woo (id:1353200)

郑子诚 Tse-sing Cheng (id:1316264)

陆骏光 Alan Luk Chun-Kwong (id:1349294)

岑乐怡 Bonde Sham (id:1375837)

金兴贤 Hing-Yin Kam (id:1327387)

胡子彤 Tony Tsz-Tung Wu (id:1362877)

周祉君 Aaron Chow (id:1365642)

苏宸褕 Kumer So (id:1383872)

邹文正 Terry Zou (id:1350958)

李忠希 Jones Lee (id:1364812)

罗浩铭 Ken Ho-Ming Law (id:1371352)

刘梦娜 Mengna Liu (id:1406650)

余达志 Tat-chi Yu (id:1359517)

方志驹 Vernon Fong (id:1378868)

钟溥敏 Mandy Chung (id:1431512)

杜港 Kong To (id:1440814)

黄百鸣 Raymond Wong (id:1275277)

程武 Wu Cheng (id:1406349)

张颖 Ying Zhang (id:1425471)

◎标 签 香港 / 反贪 / 警匪 / 犯罪 / 动作 / 2018 / 剧情 / 悬疑

◎简 介

大陆某部级高官涉嫌指派情妇来港洗钱,且金额巨大。为此,ICAC(廉政公署)陆志廉(古天乐 饰)和JFIU(联合财富情报组)刘保强(张智霖 饰)联合展开调查。可就在此时,陆被指控巨额财产来路不明,遭到廉政公署L组(内部纪律调查组)程德明(郑嘉颖 饰)的调查,并最终得到停职的处分。为证明自己清白,陆志廉千方百计找到举报自己的女孩Eva(邓丽欣 饰),发现这一切都与正在调查的洗黑钱案件息息相关。未过多久,中国反贪局侦查处处长洪亮(丁海峰 饰)也来到香港,其矛头正是洗钱案的幕后首脑张部长(冯雷 饰)。

两岸联动,多部合作,与黑恶势力展开殊死较量……

◎获奖情况 (共1项)

第38届香港电影金像奖 (2019)

最佳新演员(提名)

└──栢天男 (id:1384345)

  1. ##### MediaInfo ######

  2. General

  3. Unique ID : 90843101007089084324446308238142103757 (0x4457BEAE4BEC8397FFCD2E87D2DA60CD)

  4. Complete name : [email protected].mkv

  5. Format : Matroska

  6. Format version : Version 4

  7. File size : 5.96 GiB

  8. Duration : 1 h 36 min

  9. Overall bit rate : 8 831 kb/s

  10. Encoded date : UTC 2021-10-01 15:15:33

  11. Writing application : mkvmerge v56.1.0 ('My Friend') 64-bit

  12. Writing library : libebml v1.4.2 + libmatroska v1.6.4


  13. Video

  14. ID : 1

  15. Format : HEVC

  16. Format/Info : High Efficiency Video Coding

  17. Format profile : Main [email protected]@Main

  18. Codec ID : V_MPEGH/ISO/HEVC

  19. Duration : 1 h 36 min

  20. Bit rate : 6 510 kb/s

  21. Width : 1 920 pixels

  22. Height : 800 pixels

  23. Display aspect ratio : 2.40:1

  24. Frame rate mode : Constant

  25. Frame rate : 24.000 FPS

  26. Color space : YUV

  27. Chroma subsampling : 4:2:0

  28. Bit depth : 10 bits

  29. Bits/(Pixel*Frame) : 0.177

  30. Stream size : 4.39 GiB (74%)

  31. Writing library : x265 3.5+2-g2b25c9ba0+45:[Windows][GCC 10.2.0][64 bit] Yuuki 10bit+8bit+12bit

  32. Encoding settings : rc=crf / crf=18.0000 / qcomp=0.70 / qpstep=4 / stats-write=0 / stats-read=0 / no-lossless / no-cu-lossless / aq-mode=3 / aq-strength=0.80 / cbqpoffs=0 / crqpoffs=0 / ipratio=1.40 / pbratio=1.30 / psy-rd=2.00 / psy-rdoq=0.00 / deblock=0:0 / ref=6 / limit-refs=1 / no-limit-modes / bframes=9 / b-adapt=2 / bframe-bias=0 / b-pyramid / b-intra / weightp / weightb / min-keyint=24 / max-keyint=240 / rc-lookahead=24 / gop-lookahead=0 / NTMzNTQ=uuDQuD2mJt9fsCf / scenecut=40 / hist-scenecut=0 / radl=0 / max-cu-size=64 / min-cu-size=8 / me=3 / subme=7 / merange=48 / rdoq-level=0 / rd=4 / rdpenalty=0 / dynamic-rd=0.00 / no-rd-refine / ----- / cutree / sao / no-rect / no-amp / no-open-gop / wpp / no-pmode / no-pme / no-psnr / no-ssim / nr-intra=0 / nr-inter=0 / no-constrained-intra / no-strong-intra-smoothing / max-tu-size=32 / tu-inter-depth=1 / tu-intra-depth=1 / limit-tu=0 / qg-size=32 / qpmax=69 / qpmin=0 / ----- / cpuid=533541111039 / frame-threads=4 / numa-pools=+ / log-level=2 / input-csp=1 / input-res=1920x800 / interlace=0 / level-idc=0 / high-tier=1 / uhd-bd=0 / no-allow-non-conformance / no-repeat-headers / aud / no-hrd / info / hash=0 / no-temporal-layers / lookahead-slices=0 / no-splice / no-intra-refresh / no-ssim-rd / signhide / no-tskip / max-merge=3 / temporal-mvp / no-frame-dup / no-hme / no-analyze-src-pics / no-sao-non-deblock / selective-sao=4 / early-skip / rskip / no-fast-intra / no-tskip-fast / no-splitrd-skip / zone-count=0 / no-strict-cbr / no-rc-grain / no-const-vbv / sar=0 / overscan=0 / videoformat=5 / range=0 / colorprim=2 / transfer=2 / colormatrix=2 / chromaloc=0 / display-window=0 / cll=0,0 / min-luma=0 / max-luma=1023 / log2-max-poc-lsb=8 / vui-timing-info / vui-hrd-info / slices=1 / no-opt-qp-pps / no-opt-ref-list-length-pps / no-multi-pass-opt-rps / scenecut-bias=0.05 / hist-threshold=0.03 / no-opt-cu-delta-qp / no-aq-motion / no-hdr10 / no-hdr10-opt / no-dhdr10-opt / no-idr-recovery-sei / analysis-reuse-level=0 / analysis-save-reuse-level=0 / analysis-load-reuse-level=0 / scale-factor=0 / refine-intra=0 / refine-inter=0 / refine-mv=1 / refine-ctu-distortion=0 / no-limit-sao / ctu-info=0 / no-lowpass-dct / refine-analysis-type=0 / copy-pic=1 / max-ausize-factor=1.0 / no-dynamic-refine / no-single-sei / no-hevc-aq / no-svt / no-field / qp-adaptation-range=1.00 / scenecut-aware-qp=0conformance-window-offsets / right=0 / bottom=0 / NTMzNTQ= / decoder-max-rate=0 / no-vbv-live-multi-pass

  33. Default : Yes

  34. Forced : No


  35. Audio #1

  36. ID : 2

  37. Format : DTS

  38. Format/Info : Digital Theater Systems

  39. Codec ID : A_DTS

  40. Duration : 1 h 36 min

  41. Bit rate mode : Constant

  42. Bit rate : 1 510 kb/s

  43. Channel(s) : 6 channels

  44. Channel layout : C L R Ls Rs LFE

  45. Sampling rate : 48.0 kHz

  46. Frame rate : 93.750 FPS (512 SPF)

  47. Bit depth : 24 bits

  48. Compression mode : Lossy

  49. Stream size : 1.02 GiB (17%)

  50. Title : Cantonese

  51. Language : Chinese

  52. Default : Yes

  53. Forced : No


  54. Audio #2

  55. ID : 3

  56. ID in the original source medium : 4353 (0x1101)

  57. Format : E-AC-3

  58. Format/Info : Enhanced AC-3

  59. Commercial name : Dolby Digital Plus

  60. Format profile : Blu-ray Disc

  61. Codec ID : A_EAC3

  62. Duration : 1 h 36 min

  63. Bit rate mode : Constant

  64. Bit rate : 768 kb/s

  65. Channel(s) : 8 channels

  66. Channel layout : L R C LFE Ls Rs Lb Rb

  67. Sampling rate : 48.0 kHz

  68. Frame rate : 31.250 FPS (1536 SPF)

  69. Compression mode : Lossy

  70. Stream size : 531 MiB (9%)

  71. Title : Mandarin

  72. Language : Chinese

  73. Service kind : Complete Main

  74. Default : No

  75. Forced : No

  76. Original source medium : Blu-ray


  77. Text #1

  78. ID : 4

  79. Format : PGS

  80. Muxing mode : zlib

  81. Codec ID : S_HDMV/PGS

  82. Codec ID/Info : Picture based subtitle format used on BDs/HD-DVDs

  83. Duration : 1 h 32 min

  84. Bit rate : 29.2 kb/s

  85. Count of elements : 2737

  86. Stream size : 19.3 MiB (0%)

  87. Title : chs

  88. Language : Chinese

  89. Default : Yes

  90. Forced : No


  91. Text #2

  92. ID : 5

  93. ID in the original source medium : 4608 (0x1200)

  94. Format : PGS

  95. Muxing mode : zlib

  96. Codec ID : S_HDMV/PGS

  97. Codec ID/Info : Picture based subtitle format used on BDs/HD-DVDs

  98. Duration : 1 h 32 min

  99. Bit rate : 28.3 kb/s

  100. Count of elements : 2895

  101. Stream size : 18.8 MiB (0%)

  102. Title : cht

  103. Language : Chinese

  104. Default : No

  105. Forced : No

  106. Original source medium : Blu-ray


  107. Text #3

  108. ID : 6

  109. ID in the original source medium : 4609 (0x1201)

  110. Format : PGS

  111. Muxing mode : zlib

  112. Codec ID : S_HDMV/PGS

  113. Codec ID/Info : Picture based subtitle format used on BDs/HD-DVDs

  114. Duration : 1 h 32 min

  115. Bit rate : 29.3 kb/s

  116. Count of elements : 2910

  117. Stream size : 19.5 MiB (0%)

  118. Title : eng

  119. Language : English

  120. Default : No

  121. Forced : No

  122. Original source medium : Blu-ray


  123. Menu

  124. 00:00:00.000 : 第 01 章

  125. 00:03:11.125 : 第 02 章

  126. 00:06:37.416 : 第 03 章

  127. 00:14:16.083 : 第 04 章

  128. 00:19:20.166 : 第 05 章

  129. 00:23:56.666 : 第 06 章

  130. 00:27:13.208 : 第 07 章

  131. 00:34:52.625 : 第 08 章

  132. 00:38:07.166 : 第 09 章

  133. 00:44:01.500 : 第 10 章

  134. 00:49:57.416 : 第 11 章

  135. 00:56:01.916 : 第 12 章

  136. 01:00:15.000 : 第 13 章

  137. 01:04:50.791 : 第 14 章

  138. 01:07:53.750 : 第 15 章

  139. 01:15:55.500 : 第 16 章

  140. 01:23:48.833 : 第 17 章

  141. 01:31:10.125 : 第 18 章




复制代码



文件下载


除非特别注明,本文『反贪风暴3[国粤语配音/中文字幕].L.Storm.2018.1080p.BluRay.x265.10bit.DTS.2Audio 5.96GB』来源于互联网机器人自动抓取,非本站原创。 浮游电影网不对本文拥有版权,如有侵犯,请联系邮箱:fuyouu#yandex.com[#换成@]投诉。我们会在15个工作日内删除。 但烦请转载时请标明出处:“本文转载于『浮游电影网』,原文地址:https://www.fuyouu.com/14706.html

评论吧骚年!

发表你的见解   

昵称*

E-mail*(建议输入,以便收到博主回复的提示邮件)

验证码*

您可以使用eMule或eMule Mod(Windows)、aMule(Win、Linux、Mac)等软件下载eD2k链接。。
eMule收藏集(.emulecollection)文件是您选中的所有链接的列表文件。eMule可以直接下载它们。
按住SHIFT键选择可以选中多个选择框。
可用文件名和大小选择器来选择文件。
文件名选择器帮您根据文件名称或后缀来选择文件。不分大小写。
符号使用:
和:空格( )、+
不包含:-
或:|
转义:一对英文引号("");
匹配开头:^
匹配结尾:$
例如:
选中所有名称中包含有“eMule”或“0.49c”字眼,但不包含有“exe”字眼的:emule|0.49c -exe
选中所有名称的开头是“eMule”,结尾是“0.49c”的:^emule 0.49c$
选中所有名称中带有“eMule 0.49c”的(必须是“eMule 0.49c”,中间没有别的字符,不能是“eMule fake 0.49c”),需要转义:"emule 0.49c"
大小选择器帮您根据文件大小选择文件。