当前位置: 首页 >> 港台电影 >> 分手说爱你[国粤语配音/中文字幕].Break.Up.Club.2010.1080p.BluRay.x265.10bit.DTS.2Audio 7.10GB >> 正文

分手说爱你[国粤语配音/中文字幕].Break.Up.Club.2010.1080p.BluRay.x265.10bit.DTS.2Audio 7.10GB

2021年10月02日 20:42:10     电影发布:来源于网络     电影分类:港台电影     评论(0)    

分手说爱你[国粤语配音/中文字幕].Break.Up.Club.2010.1080p.BluRay.x265.10bit.DTS.2Audio 7.10GB 爱情片 喜剧片 剧情片 港台电影  第1张

◎译 名 分手说爱你 / Break Up Club

◎片 名 分手說愛你

◎年 代 2010

◎产 地 中国香港

◎类 别 剧情 / 喜剧 / 爱情

◎语 言 粤语

◎上映日期 2010-06-16(中国香港)

◎IMDb链接 https://www.imdb.com/title/tt1517633/

◎豆瓣评分 7.4/10 (77008人评价)

◎豆瓣链接 https://movie.douban.com/subject/3804470/

◎片 长 114分钟

◎导 演 黄真真 Chun-Chun Wong (id:1274280)

◎编 剧 黄真真 Chun-Chun Wong (id:1274280)

郑丹瑞 Lawrence Cheng (id:1017103)

◎演 员 房祖名 Jaycee Chan (id:1036492)

薛凯琪 Fiona Sit (id:1023827)

邓健泓 Patrick Tang (id:1048705)

冼色丽 Seli Xian (id:1275651)

金刚 Kong King (id:1317182)

叶山豪 Hayama Go (id:1001604)

郑丹瑞 Lawrence Cheng (id:1017103)

黄真真 Chun-Chun Wong (id:1274280)

麦振鸿 Chun Hung Mak (id:1328645)

钟炜钊 Wai Chiu Chung (id:1280783)

叶淑华 Sukie Yip (id:1305548)

王庆生 Ken Wong (id:1330605)

◎标 签 爱情 / 香港电影 / 薛凯琪 / 香港 / 房祖名 / 分手说爱你 / 黄真真 / 2010

◎简 介

Joe(房祖名 饰)与阿花(薛凯琪 饰)是一对相亲相爱的快乐小情侣,但是因一些微不足道的原因,Joe最终被女友踢出局。这个伤心的21岁男孩决定自杀,却在给亲友发电邮留遗书时发现一个奇怪的分手网站。该网站的法则是:只要Joe能够拆算其他情侣,他就可以跟自己的女友复合。

正值此时,香港电影人黄真真和郑丹瑞筹拍一部爱情电影,他们向社会征集青年男女们的爱情故事,Joe也应征前往。黄真真对Joe分手后的经历非常感兴趣,于是拿出一部DV,请Joe将挽回女友的全过程拍下来。好友Sunny(邓健泓 饰)为了Joe勇于献身,在拆散Sunny及其女友后,阿花竟真地回到Joe的身边……

◎获奖情况 (共5项)

第30届香港电影金像奖 (2011)

最佳编剧(提名)

最佳女主角(提名)

└──薛凯琪 (id:1023827)

最佳原创电影音乐(提名)

└──麦振鸿 (id:1328645)

第11届华语电影传媒大奖 (2011)

观众票选最受瞩目表现

└──薛凯琪 (id:1023827)

最佳女主角(提名)

└──薛凯琪 (id:1023827)

  1. ##### MediaInfo ######

  2. General

  3. Unique ID : 286023451311831725983613160960827827935 (0xD72E1CEB75EC0DDE98FA16AC9F63A6DF)

  4. Complete name : [email protected]DQ.COM.mkv

  5. Format : Matroska

  6. Format version : Version 4

  7. File size : 7.10 GiB

  8. Duration : 1 h 54 min

  9. Overall bit rate : 8 887 kb/s

  10. Movie name : Break Up Club 2010

  11. Encoded date : UTC 2021-10-02 02:26:42

  12. Writing application : mkvmerge v61.0.0 ('So') 64-bit

  13. Writing library : libebml v1.4.2 + libmatroska v1.6.4

  14. Cover : Yes

  15. Attachments : cover.jpg


  16. Video

  17. ID : 1

  18. Format : HEVC

  19. Format/Info : High Efficiency Video Coding

  20. Format profile : Main [email protected]@Main

  21. Codec ID : V_MPEGH/ISO/HEVC

  22. Duration : 1 h 54 min

  23. Bit rate : 6 708 kb/s

  24. Width : 1 920 pixels

  25. Height : 1 080 pixels

  26. Display aspect ratio : 16:9

  27. Frame rate mode : Constant

  28. Frame rate : 24.000 FPS

  29. Color space : YUV

  30. Chroma subsampling : 4:2:0

  31. Bit depth : 10 bits

  32. Bits/(Pixel*Frame) : 0.135

  33. Stream size : 5.36 GiB (75%)

  34. Writing library : x265 3.5+2-g2b25c9ba0+45:[Windows][GCC 10.2.0][64 bit] Yuuki 10bit+8bit+12bit

  35. Encoding settings : rc=crf / crf=19.5000 / qcomp=0.60 / qpstep=4 / stats-write=0 / stats-read=0 / no-lossless / no-cu-lossless / aq-mode=3 / aq-strength=0.90 / cbqpoffs=0 / crqpoffs=0 / ipratio=1.40 / pbratio=1.30 / psy-rd=2.00 / psy-rdoq=0.00 / deblock=0:0 / ref=6 / limit-refs=1 / no-limit-modes / bframes=8 / b-adapt=2 / bframe-bias=0 / b-pyramid / b-intra / weightp / weightb / min-keyint=24 / max-keyint=240 / rc-lookahead=24 / gop-lookahead=0 / NTMzNTQ=uuDQuD2mJt9fsCf / scenecut=40 / hist-scenecut=0 / radl=0 / max-cu-size=64 / min-cu-size=8 / me=3 / subme=7 / merange=48 / rdoq-level=0 / rd=4 / rdpenalty=0 / dynamic-rd=0.00 / no-rd-refine / ----- / cutree / sao / no-rect / no-amp / no-open-gop / wpp / no-pmode / no-pme / no-psnr / no-ssim / nr-intra=0 / nr-inter=0 / no-constrained-intra / no-strong-intra-smoothing / max-tu-size=32 / tu-inter-depth=1 / tu-intra-depth=1 / limit-tu=0 / qg-size=32 / qpmax=69 / qpmin=0 / ----- / cpuid=533541111039 / frame-threads=4 / numa-pools=+ / log-level=2 / input-csp=1 / input-res=1920x1080 / interlace=0 / level-idc=0 / high-tier=1 / uhd-bd=0 / no-allow-non-conformance / repeat-headers / aud / no-hrd / info / hash=0 / no-temporal-layers / lookahead-slices=0 / no-splice / no-intra-refresh / no-ssim-rd / signhide / no-tskip / max-merge=3 / temporal-mvp / no-frame-dup / no-hme / no-analyze-src-pics / no-sao-non-deblock / selective-sao=4 / early-skip / rskip / no-fast-intra / no-tskip-fast / no-splitrd-skip / zone-count=0 / no-strict-cbr / no-rc-grain / no-const-vbv / sar=0 / overscan=0 / videoformat=5 / range=0 / colorprim=2 / transfer=2 / colormatrix=2 / chromaloc=0 / display-window=0 / cll=0,0 / min-luma=0 / max-luma=1023 / log2-max-poc-lsb=8 / vui-timing-info / vui-hrd-info / slices=1 / no-opt-qp-pps / no-opt-ref-list-length-pps / no-multi-pass-opt-rps / scenecut-bias=0.05 / hist-threshold=0.03 / no-opt-cu-delta-qp / no-aq-motion / no-hdr10 / no-hdr10-opt / no-dhdr10-opt / no-idr-recovery-sei / analysis-reuse-level=0 / analysis-save-reuse-level=0 / analysis-load-reuse-level=0 / scale-factor=0 / refine-intra=0 / refine-inter=0 / refine-mv=1 / refine-ctu-distortion=0 / no-limit-sao / ctu-info=0 / no-lowpass-dct / refine-analysis-type=0 / copy-pic=1 / max-ausize-factor=1.0 / no-dynamic-refine / no-single-sei / no-hevc-aq / no-svt / no-field / qp-adaptation-range=1.00 / scenecut-aware-qp=0conformance-window-offsets / right=0 / bottom=0 / NTMzNTQ= / decoder-max-rate=0 / no-vbv-live-multi-pass

  36. Default : Yes

  37. Forced : No


  38. Audio #1

  39. ID : 2

  40. Format : DTS

  41. Format/Info : Digital Theater Systems

  42. Codec ID : A_DTS

  43. Duration : 1 h 54 min

  44. Bit rate mode : Constant

  45. Bit rate : 1 509 kb/s

  46. Channel(s) : 6 channels

  47. Channel layout : C L R Ls Rs LFE

  48. Sampling rate : 48.0 kHz

  49. Frame rate : 93.750 FPS (512 SPF)

  50. Bit depth : 16 bits

  51. Compression mode : Lossy

  52. Stream size : 1.21 GiB (17%)

  53. Title : Cantonese

  54. Language : Chinese

  55. Default : Yes

  56. Forced : No


  57. Audio #2

  58. ID : 3

  59. ID in the original source medium : 4354 (0x1102)

  60. Format : AC-3

  61. Format/Info : Audio Coding 3

  62. Commercial name : Dolby Digital

  63. Codec ID : A_AC3

  64. Duration : 1 h 54 min

  65. Bit rate mode : Constant

  66. Bit rate : 640 kb/s

  67. Channel(s) : 6 channels

  68. Channel layout : L R C LFE Ls Rs

  69. Sampling rate : 48.0 kHz

  70. Frame rate : 31.250 FPS (1536 SPF)

  71. Compression mode : Lossy

  72. Stream size : 524 MiB (7%)

  73. Title : Mandarin

  74. Language : Chinese

  75. Service kind : Complete Main

  76. Default : Yes

  77. Forced : No

  78. Original source medium : Blu-ray


  79. Text #1

  80. ID : 4

  81. ID in the original source medium : 4608 (0x1200)

  82. Format : PGS

  83. Muxing mode : zlib

  84. Codec ID : S_HDMV/PGS

  85. Codec ID/Info : Picture based subtitle format used on BDs/HD-DVDs

  86. Duration : 1 h 51 min

  87. Bit rate : 40.4 kb/s

  88. Count of elements : 3408

  89. Stream size : 32.2 MiB (0%)

  90. Title : cht

  91. Language : Chinese

  92. Default : No

  93. Forced : No

  94. Original source medium : Blu-ray


  95. Text #2

  96. ID : 5

  97. ID in the original source medium : 4609 (0x1201)

  98. Format : PGS

  99. Muxing mode : zlib

  100. Codec ID : S_HDMV/PGS

  101. Codec ID/Info : Picture based subtitle format used on BDs/HD-DVDs

  102. Duration : 1 h 51 min

  103. Bit rate : 36.4 kb/s

  104. Count of elements : 3408

  105. Stream size : 29.0 MiB (0%)

  106. Language : English

  107. Default : No

  108. Forced : No

  109. Original source medium : Blu-ray


  110. Menu

  111. 00:00:00.000 : Chapter 01

  112. 00:03:50.375 : Chapter 02

  113. 00:09:43.541 : Chapter 03

  114. 00:17:06.416 : Chapter 04

  115. 00:24:34.666 : Chapter 05

  116. 00:29:59.958 : Chapter 06

  117. 00:36:29.208 : Chapter 07

  118. 00:41:19.666 : Chapter 08

  119. 00:47:43.041 : Chapter 09

  120. 00:52:32.541 : Chapter 10

  121. 00:59:44.750 : Chapter 11

  122. 01:06:15.791 : Chapter 12

  123. 01:11:05.416 : Chapter 13

  124. 01:16:53.125 : Chapter 14

  125. 01:21:10.625 : Chapter 15

  126. 01:31:40.208 : Chapter 16

  127. 01:43:54.708 : Chapter 17

  128. 01:51:56.458 : Chapter 18


文件下载


除非特别注明,本文『分手说爱你[国粤语配音/中文字幕].Break.Up.Club.2010.1080p.BluRay.x265.10bit.DTS.2Audio 7.10GB』来源于互联网机器人自动抓取,非本站原创。 浮游电影网不对本文拥有版权,如有侵犯,请联系邮箱:fuyouu#yandex.com[#换成@]投诉。我们会在15个工作日内删除。 但烦请转载时请标明出处:“本文转载于『浮游电影网』,原文地址:https://www.fuyouu.com/14705.html

评论吧骚年!

发表你的见解   

昵称*

E-mail*(建议输入,以便收到博主回复的提示邮件)

验证码*

您可以使用eMule或eMule Mod(Windows)、aMule(Win、Linux、Mac)等软件下载eD2k链接。。
eMule收藏集(.emulecollection)文件是您选中的所有链接的列表文件。eMule可以直接下载它们。
按住SHIFT键选择可以选中多个选择框。
可用文件名和大小选择器来选择文件。
文件名选择器帮您根据文件名称或后缀来选择文件。不分大小写。
符号使用:
和:空格( )、+
不包含:-
或:|
转义:一对英文引号("");
匹配开头:^
匹配结尾:$
例如:
选中所有名称中包含有“eMule”或“0.49c”字眼,但不包含有“exe”字眼的:emule|0.49c -exe
选中所有名称的开头是“eMule”,结尾是“0.49c”的:^emule 0.49c$
选中所有名称中带有“eMule 0.49c”的(必须是“eMule 0.49c”,中间没有别的字符,不能是“eMule fake 0.49c”),需要转义:"emule 0.49c"
大小选择器帮您根据文件大小选择文件。