当前位置: 首页 >> 欧美电影 >> 战场上的快乐圣诞[中文字幕].Merry.Christmas.Mr.Lawrence.1983.1080p.BluRay.x265.10bit.DTS 9.03GB >> 正文

战场上的快乐圣诞[中文字幕].Merry.Christmas.Mr.Lawrence.1983.1080p.BluRay.x265.10bit.DTS 9.03GB

2021年10月02日 20:39:47     电影发布:来源于网络     电影分类:欧美电影     评论(0)    

战场上的快乐圣诞[中文字幕].Merry.Christmas.Mr.Lawrence.1983.1080p.BluRay.x265.10bit.DTS 9.03GB 同性 战争片 剧情片 欧美电影  第1张

◎译 名 战场上的快乐圣诞 / 俘虏(台) / 圣诞快乐,劳伦斯先生 / Merry Christmas, Mr. Lawrence / 戦場のメリークリスマス

◎片 名 Merry Christmas Mr. Lawrence

◎年 代 1983

◎产 地 英国 / 日本 / 新西兰

◎类 别 剧情 / 同性 / 战争

◎语 言 英语 / 日语

◎上映日期 1983-05-11(戛纳电影节) / 1983-05-28(日本) / 1983-08-25(英国)

◎IMDb链接 https://www.imdb.com/title/tt0085933/

◎豆瓣评分 8.8/10 (89514人评价)

◎豆瓣链接 https://movie.douban.com/subject/1303535/

◎片 长 123分钟

◎导 演 大岛渚 Nagisa ?shima (id:1128697)

◎编 剧 劳伦斯·凡·德·普司特 Laurens Van der Post (id:1038424)

大岛渚 Nagisa ?shima (id:1128697)

保罗·梅尔斯贝格 Paul Mayersberg (id:1019482)

◎演 员 大卫·鲍伊 David Bowie (id:1013850)

汤姆·康蒂 Tom Conti (id:1041267)

坂本龙一 Ryuichi Sakamoto (id:1148641)

北野武 Takeshi Kitano (id:1054423)

杰克·汤普森 Jack Thompson (id:1152253)

约翰尼·大仓 Johnny Okura (id:1287905)

阿利斯泰尔·布朗宁 Alistair Browning (id:1279475)

詹姆斯·马尔科姆 James Malcolm (id:1388444)

克里斯·布龙 Chris Broun (id:1388445)

内田裕也 Y?ya Uchida (id:1042163)

金田龙之介 Ryunosuke Kaneda (id:1021294)

内藤刚志 Takashi Nait? (id:1020440)

石仓民夫 Tamio Ishikura (id:1388446)

户浦六宏 Rokko Toura (id:1046965)

三上宽 Kan Mikami (id:1035704)

本间裕二 Y?ji Honma (id:1286874)

饭岛大介 Daisuke Iijima (id:1389348)

三上博史 Hiroshi Mikami (id:1025614)

增田有宏 Masuda Arihiro (id:1404545)

兼子二郎 Beat Kiyoshi (id:1426736)

冈田正典 Masanori Okada (id:1447773)

杰瑞米·托马斯 Jeremy Thomas (id:1023186)

坂本龙一 Ryuichi Sakamoto (id:1148641)

成岛东一郎 Toichiro Narushima (id:1292920)

◎标 签 坂本龙一 / 日本 / 北野武 / 战争 / 大岛渚 / 同性 / 日本电影 / David_Bowie

◎简 介

1942年,第二次世界大战如火如荼,此时的日本在亚洲各战场所向披靡,无往不利。在南洋爪哇岛的热带丛林中,一所日军战俘看守所伫立于此,陆军大尉世野井(坂本龙一 饰)和大原上士(北野武 饰)共同管理看守所。大原作风粗鲁,冷酷无情,他对待欧美战俘从来不留情面,而对于那些有同性恋倾向的人更残酷至极。相比之下,相貌俊美的世野则显得绅士许多。英国陆军少佐杰克(David Bowie 饰)潇洒俊朗。他的第一次出现便让世野心有所动。同性之风盛行的战俘营中,几多情感不能自已。在接下来的日子里,两个人徘徊在家国恩怨和个人情感之间,彼此心中进行着辛苦而残酷的角力……

本片根据英国人劳伦斯·包斯特的小说改编,并荣获1984年电影旬报观众选择奖最佳影片,1984年每日电影最佳导演、最佳影片、最佳配乐、最佳剧本以及最佳男配角(北野武)等5个奖项。

◎获奖情况 (共1项)

第36届戛纳电影节 (1983)

主竞赛单元 金棕榈奖(提名)

└──大岛渚 (id:1128697)

  1. ##### MediaInfo ######

  2. General

  3. Unique ID : 190670641970059368076321104171082014600 (0x8F71D47393C0BC4D70B7FF71F7ED5F88)

  4. Complete name : Mer[email protected]BBQDDQ.COM.mkv

  5. Format : Matroska

  6. Format version : Version 4

  7. File size : 9.03 GiB

  8. Duration : 2 h 3 min

  9. Overall bit rate : 10.5 Mb/s

  10. Movie name : Merry Christmas Mr. Lawrence

  11. Encoded date : UTC 2021-10-01 10:30:15

  12. Writing application : mkvmerge v61.0.0 ('So') 64-bit

  13. Writing library : libebml v1.4.2 + libmatroska v1.6.4

  14. Cover : Yes

  15. Attachments : cover.jpg


  16. Video

  17. ID : 1

  18. Format : HEVC

  19. Format/Info : High Efficiency Video Coding

  20. Format profile : Main [email protected]@Main

  21. Codec ID : V_MPEGH/ISO/HEVC

  22. Duration : 2 h 3 min

  23. Bit rate : 8 907 kb/s

  24. Width : 1 920 pixels

  25. Height : 1 080 pixels

  26. Display aspect ratio : 16:9

  27. Frame rate mode : Constant

  28. Frame rate : 23.976 (24000/1001/53354) FPS

  29. Color space : YUV

  30. Chroma subsampling : 4:2:0

  31. Bit depth : 10 bits

  32. Bits/(Pixel*Frame) : 0.179

  33. Stream size : 7.67 GiB (85%)

  34. Writing library : x265 3.5+2-g2b25c9ba0+45:[Windows][GCC 10.2.0][64 bit] Yuuki 10bit+8bit+12bit

  35. Encoding settings : rc=crf / crf=20.0000 / qcomp=0.60 / qpstep=4 / stats-write=0 / stats-read=0 / no-lossless / no-cu-lossless / aq-mode=3 / aq-strength=0.70 / cbqpoffs=0 / crqpoffs=0 / ipratio=1.40 / pbratio=1.30 / psy-rd=2.00 / psy-rdoq=0.00 / deblock=0:0 / ref=6 / limit-refs=1 / no-limit-modes / bframes=8 / b-adapt=2 / bframe-bias=0 / b-pyramid / b-intra / weightp / weightb / min-keyint=24 / max-keyint=240 / rc-lookahead=24 / gop-lookahead=0 / NTMzNTQ=uuDQuD2mJt9fsCf / scenecut=40 / hist-scenecut=0 / radl=0 / max-cu-size=64 / min-cu-size=8 / me=3 / subme=7 / merange=48 / rdoq-level=0 / rd=4 / rdpenalty=0 / dynamic-rd=0.00 / no-rd-refine / ----- / cutree / sao / no-rect / no-amp / no-open-gop / wpp / no-pmode / pme / no-psnr / no-ssim / nr-intra=0 / nr-inter=0 / no-constrained-intra / no-strong-intra-smoothing / max-tu-size=32 / tu-inter-depth=1 / tu-intra-depth=1 / limit-tu=0 / qg-size=32 / qpmax=69 / qpmin=0 / ----- / cpuid=533541111039 / frame-threads=4 / numa-pools=+ / log-level=2 / input-csp=1 / input-res=1920x1080 / interlace=0 / level-idc=0 / high-tier=1 / uhd-bd=0 / no-allow-non-conformance / no-repeat-headers / aud / no-hrd / info / hash=0 / no-temporal-layers / lookahead-slices=0 / no-splice / no-intra-refresh / no-ssim-rd / signhide / no-tskip / max-merge=3 / temporal-mvp / no-frame-dup / no-hme / no-analyze-src-pics / no-sao-non-deblock / selective-sao=4 / early-skip / rskip / no-fast-intra / no-tskip-fast / no-splitrd-skip / zone-count=0 / no-strict-cbr / no-rc-grain / no-const-vbv / sar=0 / overscan=0 / videoformat=5 / range=0 / colorprim=2 / transfer=2 / colormatrix=2 / chromaloc=0 / display-window=0 / cll=0,0 / min-luma=0 / max-luma=1023 / log2-max-poc-lsb=8 / vui-timing-info / vui-hrd-info / slices=1 / no-opt-qp-pps / no-opt-ref-list-length-pps / no-multi-pass-opt-rps / scenecut-bias=0.05 / hist-threshold=0.03 / no-opt-cu-delta-qp / no-aq-motion / no-hdr10 / no-hdr10-opt / no-dhdr10-opt / no-idr-recovery-sei / analysis-reuse-level=0 / analysis-save-reuse-level=0 / analysis-load-reuse-level=0 / scale-factor=0 / refine-intra=0 / refine-inter=0 / refine-mv=1 / refine-ctu-distortion=0 / no-limit-sao / ctu-info=0 / no-lowpass-dct / refine-analysis-type=0 / copy-pic=1 / max-ausize-factor=1.0 / no-dynamic-refine / no-single-sei / no-hevc-aq / no-svt / no-field / qp-adaptation-range=1.00 / scenecut-aware-qp=0conformance-window-offsets / right=0 / bottom=0 / NTMzNTQ= / decoder-max-rate=0 / no-vbv-live-multi-pass

  36. Default : Yes

  37. Forced : No


  38. Audio

  39. ID : 2

  40. ID in the original source medium : 4352 (0x1100)

  41. Format : DTS

  42. Format/Info : Digital Theater Systems

  43. Codec ID : A_DTS

  44. Duration : 2 h 3 min

  45. Bit rate mode : Constant

  46. Bit rate : 1 509 kb/s

  47. Channel(s) : 2 channels

  48. Channel layout : Lt Rt

  49. Sampling rate : 48.0 kHz

  50. Frame rate : 93.750 FPS (512 SPF)

  51. Bit depth : 24 bits

  52. Compression mode : Lossy

  53. Stream size : 1.30 GiB (14%)

  54. Language : Japanese

  55. Default : Yes

  56. Forced : No

  57. Original source medium : Blu-ray


  58. Text #1

  59. ID : 3

  60. ID in the original source medium : 4609 (0x1201)

  61. Format : PGS

  62. Muxing mode : zlib

  63. Codec ID : S_HDMV/PGS

  64. Codec ID/Info : Picture based subtitle format used on BDs/HD-DVDs

  65. Duration : 1 h 59 min

  66. Bit rate : 40.4 kb/s

  67. Count of elements : 2133

  68. Stream size : 34.5 MiB (0%)

  69. Title : chs&eng

  70. Language : Chinese

  71. Default : Yes

  72. Forced : No

  73. Original source medium : Blu-ray


  74. Text #2

  75. ID : 4

  76. ID in the original source medium : 4610 (0x1202)

  77. Format : PGS

  78. Muxing mode : zlib

  79. Codec ID : S_HDMV/PGS

  80. Codec ID/Info : Picture based subtitle format used on BDs/HD-DVDs

  81. Duration : 1 h 59 min

  82. Bit rate : 40.7 kb/s

  83. Count of elements : 2133

  84. Stream size : 34.8 MiB (0%)

  85. Title : cht&eng

  86. Language : Chinese

  87. Default : No

  88. Forced : No

  89. Original source medium : Blu-ray


  90. Text #3

  91. ID : 5

  92. ID in the original source medium : 4611 (0x1203)

  93. Format : PGS

  94. Muxing mode : zlib

  95. Codec ID : S_HDMV/PGS

  96. Codec ID/Info : Picture based subtitle format used on BDs/HD-DVDs

  97. Duration : 1 h 59 min

  98. Bit rate : 26.8 kb/s

  99. Count of elements : 2133

  100. Stream size : 22.9 MiB (0%)

  101. Title : chs

  102. Language : Chinese

  103. Default : No

  104. Forced : No

  105. Original source medium : Blu-ray


  106. Text #4

  107. ID : 6

  108. ID in the original source medium : 4612 (0x1204)

  109. Format : PGS

  110. Muxing mode : zlib

  111. Codec ID : S_HDMV/PGS

  112. Codec ID/Info : Picture based subtitle format used on BDs/HD-DVDs

  113. Duration : 1 h 59 min

  114. Bit rate : 27.0 kb/s

  115. Count of elements : 2133

  116. Stream size : 23.1 MiB (0%)

  117. Title : cht

  118. Language : Chinese

  119. Default : No

  120. Forced : No

  121. Original source medium : Blu-ray


  122. Text #5

  123. ID : 7

  124. ID in the original source medium : 4608 (0x1200)

  125. Format : PGS

  126. Muxing mode : zlib

  127. Codec ID : S_HDMV/PGS

  128. Codec ID/Info : Picture based subtitle format used on BDs/HD-DVDs

  129. Duration : 1 h 43 min

  130. Bit rate : 9 577 b/s

  131. Count of elements : 656

  132. Stream size : 7.07 MiB (0%)

  133. Title : eng

  134. Language : English

  135. Default : No

  136. Forced : No

  137. Original source medium : Blu-ray


  138. Menu

  139. 00:00:00.000 : Chapter 01

  140. 00:03:08.062 : Chapter 02

  141. 00:08:40.895 : Chapter 03

  142. 00:18:45.624 : Chapter 04

  143. 00:23:33.787 : Chapter 05

  144. 00:32:48.883 : Chapter 06

  145. 00:38:26.595 : Chapter 07

  146. 00:43:42.411 : Chapter 08

  147. 00:49:15.160 : Chapter 09

  148. 00:58:40.850 : Chapter 10

  149. 01:04:24.151 : Chapter 11

  150. 01:10:07.119 : Chapter 12

  151. 01:17:10.667 : Chapter 13

  152. 01:29:08.426 : Chapter 14

  153. 01:35:21.340 : Chapter 15

  154. 01:44:06.949 : Chapter 16

  155. 01:53:49.322 : Chapter 17

  156. 01:59:52.852 : Chapter 18



文件下载


除非特别注明,本文『战场上的快乐圣诞[中文字幕].Merry.Christmas.Mr.Lawrence.1983.1080p.BluRay.x265.10bit.DTS 9.03GB』来源于互联网机器人自动抓取,非本站原创。 浮游电影网不对本文拥有版权,如有侵犯,请联系邮箱:fuyouu#yandex.com[#换成@]投诉。我们会在15个工作日内删除。 但烦请转载时请标明出处:“本文转载于『浮游电影网』,原文地址:https://www.fuyouu.com/14703.html

评论吧骚年!

发表你的见解   

昵称*

E-mail*(建议输入,以便收到博主回复的提示邮件)

验证码*

您可以使用eMule或eMule Mod(Windows)、aMule(Win、Linux、Mac)等软件下载eD2k链接。。
eMule收藏集(.emulecollection)文件是您选中的所有链接的列表文件。eMule可以直接下载它们。
按住SHIFT键选择可以选中多个选择框。
可用文件名和大小选择器来选择文件。
文件名选择器帮您根据文件名称或后缀来选择文件。不分大小写。
符号使用:
和:空格( )、+
不包含:-
或:|
转义:一对英文引号("");
匹配开头:^
匹配结尾:$
例如:
选中所有名称中包含有“eMule”或“0.49c”字眼,但不包含有“exe”字眼的:emule|0.49c -exe
选中所有名称的开头是“eMule”,结尾是“0.49c”的:^emule 0.49c$
选中所有名称中带有“eMule 0.49c”的(必须是“eMule 0.49c”,中间没有别的字符,不能是“eMule fake 0.49c”),需要转义:"emule 0.49c"
大小选择器帮您根据文件大小选择文件。