当前位置: 首页 >> 欧美电影 >> 12回合[中文字幕].12.Rounds.2009.1080p.BluRay.DTS-HD.MA.5.1.x265-10bit 8.57GB >> 正文

12回合[中文字幕].12.Rounds.2009.1080p.BluRay.DTS-HD.MA.5.1.x265-10bit 8.57GB

2021年10月02日 20:38:44     电影发布:来源于网络     电影分类:欧美电影     评论(0)    

12回合[中文字幕].12.Rounds.2009.1080p.BluRay.DTS HD.MA.5.1.x265 10bit 8.57GB 犯罪片 动作片 欧美电影  第1张

◎译 名 12回合 / 致命十二杀(台) / 十二回合 / Twelve Rounds

◎片 名 12 Rounds

◎年 代 2009

◎产 地 美国

◎类 别 动作 / 犯罪

◎语 言 英语

◎上映日期 2009-03-27(美国)

◎IMDb链接 https://www.imdb.com/title/tt1160368/

◎豆瓣评分 6.2/10 (3822人评价)

◎豆瓣链接 https://movie.douban.com/subject/3011355/

◎片 长 109分钟

◎导 演 雷尼·哈林 Renny Harlin (id:1032052)

◎演 员 约翰·塞纳 John Cena (id:1044883)

艾丹·吉伦 Aidan Gillen (id:1044961)

艾什丽·斯科特 Ashley Scott (id:1010595)

史蒂夫·哈里斯 Steve Harris (id:1055408)

布莱恩·J·怀特 Brian J. White (id:1048170)

卡洛·达坎 Carlo Daquin (id:1201572)

布莱恩·斯坦顿 Brian Stanton (id:1204932)

布兰迪·科尔曼 Brandi Coleman (id:1205832)

比利·斯洛特 Billy Slaughter (id:1205890)

卢克奥尔布赖特 Luke Albright (id:1331270)

Chaz Smith (id:1238867)

罗德尼·赫伯特 Rodney Hebert (id:1242545)

特里·李·史密斯 Terry Lee Smith (id:1273073)

罗莎琳德·鲁宾 Rosalind Rubin (id:1253419)

约瑟夫·辛特隆 Joseph Cintron (id:1254693)

Paige Pollack Paige Pollack (id:1294676)

Kyrt Gates (id:1265429)

Corey Stewart (id:1256437)

Logan Douglas Smith (id:1271844)

劳丽·李 Laurie Lee (id:1260805)

拉腊·格赖斯 Lara Grice (id:1182096)

泰勒·科尔 Taylor Cole (id:1044962)

丹尼尔文森特 Daniel Vincent (id:1037575)

路易斯·赫特哈姆 Louis Herthum (id:1009567)

Travis Davis Travis Davis (id:1028207)

金·柯林斯 Kim Collins (id:1069068)

凯茜·卡瓦蒂妮 Cathy Cavadini (id:1071962)

罗伯特·普拉尔戈 Robert Pralgo (id:1174082)

B·马丁·威廉姆斯 B. Martin Williams (id:1162525)

杰森·佩斯 Jason Pace (id:1134264)

冈萨洛·门内德斯 Gonzalo Menendez (id:1122943)

道格拉斯·M·格里芬 Douglas M. Griffin (id:1093003)

Greg Finley Greg Finley (id:1082636)

约翰·德米塔 John DeMita (id:1081536)

韦恩·费拉拉 Wayne Ferrara (id:1079520)

马克·戈登 Mark Gordon (id:1027966)

特沃·拉宾 Trevor Rabin (id:1014253)

约翰·帕帕席德拉 John Papsidera (id:1293922)

尼古拉斯·伦迪 Nicholas Lundy (id:1290473)

Sherman Shelton Jr. Sherman Shelton Jr. (id:1184211)

Mary Ellen Woods Mary Ellen Woods (id:1301249)

George Macri George Macri (id:1124081)

Ben Myers (id:1252838)

雷·麦金太尔 Ray McIntyre Jr. (id:1291625)

David Ridlen David Ridlen (id:1048719)

◎标 签 动作 / 美国 / 犯罪 / 美国电影 / 警匪 / 2009 / 暴力 / 电影

◎简 介

美国新奥尔良一个喧闹的夜晚,FBI正在围捕蜚声国际的恐怖分子迈尔斯?杰克逊(艾丹?吉伦 Aidan Gillen 饰)。是夜,狡猾的迈尔斯正与另一伙犯罪分子作交易,他用计杀掉对手,还把FBI耍得团团转。当地的警察丹尼?费舍尔(约翰?塞纳 John Cena 饰)奉命参加行动,他和搭档偶遇迈尔斯及其女友驾驶的汽车。在一番激烈的追逐过后,迈尔斯最终落网,而他的女友则不幸死于车祸。一年后,迈尔斯成功越狱。他绑架了丹尼的女友莫莉?波特(阿什莉?斯科特 Ashley Scott 饰)。他为丹尼设计了12道难关,一场关乎生死的危险游戏就此展开……

本片男主角John Cena是美国最大摔角组织WWE的摔角明星。

  1. ##### MediaInfo ######

  2. General

  3. Unique ID : 213069025547505578438869190077075190425 (0xA04B9A05E32E5E02ECCB4CAEB5B47299)

  4. Complete name : [email protected]Q.COM.mkv

  5. Format : Matroska

  6. Format version : Version 4

  7. File size : 8.57 GiB

  8. Duration : 1 h 49 min

  9. Overall bit rate mode : Variable

  10. Overall bit rate : 11.2 Mb/s

  11. Movie name : 12 Rounds 2009 1080p BluRay DTS-HD MA 5.1 [email protected]

  12. Encoded date : UTC 2021-09-24 08:44:54

  13. Writing application : mkvmerge v38.0.0 ('The Silent Type') 64-bit

  14. Writing library : libebml v1.3.9 + libmatroska v1.5.2


  15. Video

  16. ID : 1

  17. Format : HEVC

  18. Format/Info : High Efficiency Video Coding

  19. Format profile : Main [email protected]@High

  20. Codec ID : V_MPEGH/ISO/HEVC

  21. Duration : 1 h 49 min

  22. Bit rate : 6 922 kb/s

  23. Width : 1 920 pixels

  24. Height : 804 pixels

  25. Display aspect ratio : 2.40:1

  26. Frame rate mode : Constant

  27. Frame rate : 23.976 (24000/1001/53354) FPS

  28. Color space : YUV

  29. Chroma subsampling : 4:2:0

  30. Bit depth : 10 bits

  31. Bits/(Pixel*Frame) : 0.187

  32. Stream size : 5.30 GiB (62%)

  33. Title : [email protected]

  34. Writing library : x265 - H.265/HEVC codec

  35. Default : Yes

  36. Forced : No


  37. Audio

  38. ID : 2

  39. Format : DTS XLL

  40. Format/Info : Digital Theater Systems

  41. Commercial name : DTS-HD Master Audio

  42. Codec ID : A_DTS

  43. Duration : 1 h 49 min

  44. Bit rate mode : Variable

  45. Bit rate : 4 179 kb/s

  46. Channel(s) : 6 channels

  47. Channel layout : C L R Ls Rs LFE

  48. Sampling rate : 48.0 kHz

  49. Frame rate : 93.750 FPS (512 SPF)

  50. Bit depth : 24 bits

  51. Compression mode : Lossless

  52. Stream size : 3.20 GiB (37%)

  53. Title : English

  54. Language : English

  55. Default : Yes

  56. Forced : No


  57. Text #1

  58. ID : 3

  59. Format : PGS

  60. Muxing mode : zlib

  61. Codec ID : S_HDMV/PGS

  62. Codec ID/Info : Picture based subtitle format used on BDs/HD-DVDs

  63. Duration : 1 h 44 min

  64. Bit rate : 67.4 kb/s

  65. Count of elements : 2658

  66. Stream size : 50.5 MiB (1%)

  67. Title : CHT

  68. Language : Chinese

  69. Default : Yes

  70. Forced : No


  71. Text #2

  72. ID : 4

  73. Format : PGS

  74. Muxing mode : zlib

  75. Codec ID : S_HDMV/PGS

  76. Codec ID/Info : Picture based subtitle format used on BDs/HD-DVDs

  77. Duration : 1 h 44 min

  78. Bit rate : 68.6 kb/s

  79. Count of elements : 2658

  80. Stream size : 51.4 MiB (1%)

  81. Title : CHT

  82. Language : Chinese

  83. Default : No

  84. Forced : No


  85. Text #3

  86. ID : 5

  87. Format : PGS

  88. Muxing mode : zlib

  89. Codec ID : S_HDMV/PGS

  90. Codec ID/Info : Picture based subtitle format used on BDs/HD-DVDs

  91. Duration : 1 h 46 min

  92. Bit rate : 59.9 kb/s

  93. Count of elements : 2842

  94. Stream size : 45.4 MiB (1%)

  95. Title : ENG

  96. Language : English

  97. Default : No

  98. Forced : No


  99. Menu

  100. 00:00:00.000 : en:Chapter 01

  101. 00:02:44.581 : en:Chapter 02

  102. 00:04:28.268 : en:Chapter 03

  103. 00:07:36.122 : en:Chapter 04

  104. 00:11:57.050 : en:Chapter 05

  105. 00:14:26.115 : en:Chapter 06

  106. 00:17:33.803 : en:Chapter 07

  107. 00:20:26.600 : en:Chapter 08

  108. 00:22:25.344 : en:Chapter 09

  109. 00:24:11.325 : en:Chapter 10

  110. 00:26:43.352 : en:Chapter 11

  111. 00:28:40.594 : en:Chapter 12

  112. 00:33:53.490 : en:Chapter 13

  113. 00:34:59.514 : en:Chapter 14

  114. 00:38:23.676 : en:Chapter 15

  115. 00:44:21.117 : en:Chapter 16

  116. 00:50:54.802 : en:Chapter 17

  117. 00:56:05.404 : en:Chapter 18

  118. 01:00:30.752 : en:Chapter 19

  119. 01:03:28.763 : en:Chapter 20

  120. 01:06:28.109 : en:Chapter 21

  121. 01:14:04.607 : en:Chapter 22

  122. 01:15:38.033 : en:Chapter 23

  123. 01:17:02.826 : en:Chapter 24

  124. 01:25:25.579 : en:Chapter 25

  125. 01:29:12.931 : en:Chapter 26

  126. 01:31:06.711 : en:Chapter 27

  127. 01:35:31.768 : en:Chapter 28

  128. 01:36:57.937 : en:Chapter 29

  129. 01:40:06.208 : en:Chapter 30

  130. 01:42:45.075 : en:Chapter 31

  131. 01:45:32.451 : en:Chapter 32




复制代码



文件下载


除非特别注明,本文『12回合[中文字幕].12.Rounds.2009.1080p.BluRay.DTS-HD.MA.5.1.x265-10bit 8.57GB』来源于互联网机器人自动抓取,非本站原创。 浮游电影网不对本文拥有版权,如有侵犯,请联系邮箱:fuyouu#yandex.com[#换成@]投诉。我们会在15个工作日内删除。 但烦请转载时请标明出处:“本文转载于『浮游电影网』,原文地址:https://5.189.174.242/14702.html

评论吧骚年!

发表你的见解   

昵称*

E-mail*(建议输入,以便收到博主回复的提示邮件)

验证码*

您可以使用eMule或eMule Mod(Windows)、aMule(Win、Linux、Mac)等软件下载eD2k链接。。
eMule收藏集(.emulecollection)文件是您选中的所有链接的列表文件。eMule可以直接下载它们。
按住SHIFT键选择可以选中多个选择框。
可用文件名和大小选择器来选择文件。
文件名选择器帮您根据文件名称或后缀来选择文件。不分大小写。
符号使用:
和:空格( )、+
不包含:-
或:|
转义:一对英文引号("");
匹配开头:^
匹配结尾:$
例如:
选中所有名称中包含有“eMule”或“0.49c”字眼,但不包含有“exe”字眼的:emule|0.49c -exe
选中所有名称的开头是“eMule”,结尾是“0.49c”的:^emule 0.49c$
选中所有名称中带有“eMule 0.49c”的(必须是“eMule 0.49c”,中间没有别的字符,不能是“eMule fake 0.49c”),需要转义:"emule 0.49c"
大小选择器帮您根据文件大小选择文件。