当前位置: 首页 >> 国产电影 >> 反贪风暴2[国粤语配音/中文字幕].S.Storm.2016.1080p.BluRay.x265.10bit.DTS.2Audio 7.16GB >> 正文

反贪风暴2[国粤语配音/中文字幕].S.Storm.2016.1080p.BluRay.x265.10bit.DTS.2Audio 7.16GB

2021年10月02日 20:37:40     电影发布:来源于网络     电影分类:国产电影     评论(0)    

反贪风暴2[国粤语配音/中文字幕].S.Storm.2016.1080p.BluRay.x265.10bit.DTS.2Audio 7.16GB 犯罪片 剧情片 国产电影  第1张

◎译 名 反贪风暴2 / Z风暴2 / S Storm

◎片 名 S風暴

◎年 代 2016

◎产 地 中国大陆 / 中国香港

◎类 别 剧情 / 犯罪

◎语 言 汉语普通话 / 粤语

◎上映日期 2016-09-14(中国大陆)

◎IMDb链接 https://www.imdb.com/title/tt5998744/

◎豆瓣评分 5.8/10 (59402人评价)

◎豆瓣链接 https://movie.douban.com/subject/26352445/

◎片 长 95分钟

◎导 演 林德禄 David Lam (id:1326068)

◎编 剧 黄浩华 Ho-Wa Wong (id:1340349)

林德禄 David Lam (id:1326068)

◎演 员 古天乐 Louis Koo (id:1027577)

张智霖 Julian Cheung (id:1050979)

周渝民 Vic Chou (id:1274366)

蔡少芬 Ada Choi (id:1050946)

林保怡 Bowie Lam (id:1274606)

卢海鹏 Hoi-Pang Lo (id:1038772)

石修 Sau Sek (id:1166760)

曾志伟 Eric Tsang (id:1002862)

陈静 Dada Chan (id:1316214)

曾国祥 Derek Tsang (id:1274534)

夏嫣 Sheng (id:1326280)

张松枝 Deno Cheung (id:1339097)

姜皓文 Philip Keung Ho-Man (id:1317884)

蔡洁 Jacky Cai (id:1339078)

欧锦棠 Stephen Au (id:1275712)

徐靖雯 Jenny Xu (id:1335618)

宋海颉 Haijie Song (id:1364811)

陈宇琛 Sam Chan Yu-Sum (id:1318088)

陆骏光 Alan Luk Chun-Kwong (id:1349294)

李忠希 Jones Lee (id:1364812)

张同祖 Tung Cho Cheung (id:1313660)

郑敬基 King-Kei Cheng (id:1315302)

郭锋 Fung Kwok (id:1314508)

尹子维 Terence Yin (id:1045571)

姚学智 Jeff Yiu (id:1405418)

李宗彥 Jason Li (id:1411001)

黃雋謙 Chun Him Wong (id:1381921)

林家栋 Ka Tung Lam (id:1050329)

黄百鸣 Raymond Wong (id:1275277)

张雯 Isabella Chang (id:1373864)

海瑞 Pino.Rea (id:1445093)

◎标 签 香港 / 犯罪 / 警匪 / ICAC / 动作 / 2016 / 电影香港 / 剧情

◎简 介

廉政公署根据调查,发现马会的球赛博彩操盘手(尹子维 饰)涉嫌违法行为。在试图调查此人的时候,此人却遭杀手(周渝民 饰)杀害。廉署首席调查主任陆志廉(古天乐 饰)作为目击证人受到重案组督察刘保强(张智霖 饰)的调查。在此之后,廉署和警方联合展开行动,只不过在这一过程中,双方彼此防备,关系微妙。根据刘保强的线人提供的信息,博彩幕后操盘手是一个被称为华老师的神秘人物。陆志廉顺藤摸瓜,逼近猎物,怎奈对方分外狡猾,被对方三番五次逃脱。在这一过程中,马会中又有前廉署人员遇害。

为了金钱利益,人性尽失……

  1. ##### MediaInfo ######

  2. General

  3. Unique ID : 329702391434041373778823787847451184018 (0xF80A5EEF5CF072B8A5CAC90AAFA48B92)

  4. Complete name : [email protected].mkv

  5. Format : Matroska

  6. Format version : Version 4

  7. File size : 7.16 GiB

  8. Duration : 1 h 34 min

  9. Overall bit rate : 10.8 Mb/s

  10. Encoded date : UTC 2021-09-27 14:06:16

  11. Writing application : mkvmerge v56.1.0 ('My Friend') 64-bit

  12. Writing library : libebml v1.4.2 + libmatroska v1.6.4


  13. Video

  14. ID : 1

  15. Format : HEVC

  16. Format/Info : High Efficiency Video Coding

  17. Format profile : Main [email protected]@Main

  18. Codec ID : V_MPEGH/ISO/HEVC

  19. Duration : 1 h 34 min

  20. Bit rate : 7 758 kb/s

  21. Width : 1 920 pixels

  22. Height : 804 pixels

  23. Display aspect ratio : 2.40:1

  24. Frame rate mode : Constant

  25. Frame rate : 24.000 FPS

  26. Color space : YUV

  27. Chroma subsampling : 4:2:0

  28. Bit depth : 10 bits

  29. Bits/(Pixel*Frame) : 0.209

  30. Stream size : 5.13 GiB (72%)

  31. Writing library : x265 3.5+2-g2b25c9ba0+45:[Windows][GCC 10.2.0][64 bit] Yuuki 10bit+8bit+12bit

  32. Encoding settings : rc=crf / crf=16.5000 / qcomp=0.70 / qpstep=4 / stats-write=0 / stats-read=0 / no-lossless / no-cu-lossless / aq-mode=3 / aq-strength=0.90 / cbqpoffs=0 / crqpoffs=0 / ipratio=1.40 / pbratio=1.30 / psy-rd=2.00 / psy-rdoq=0.00 / deblock=0:0 / ref=6 / limit-refs=1 / no-limit-modes / bframes=7 / b-adapt=2 / bframe-bias=0 / b-pyramid / b-intra / weightp / weightb / min-keyint=24 / max-keyint=240 / rc-lookahead=24 / gop-lookahead=0 / NTMzNTQ=uuDQuD2mJt9fsCf / scenecut=40 / hist-scenecut=0 / radl=0 / max-cu-size=64 / min-cu-size=8 / me=3 / subme=7 / merange=48 / rdoq-level=0 / rd=4 / rdpenalty=0 / dynamic-rd=0.00 / no-rd-refine / ----- / cutree / sao / no-rect / no-amp / no-open-gop / wpp / no-pmode / no-pme / no-psnr / no-ssim / nr-intra=0 / nr-inter=0 / no-constrained-intra / no-strong-intra-smoothing / max-tu-size=32 / tu-inter-depth=1 / tu-intra-depth=1 / limit-tu=0 / qg-size=32 / qpmax=69 / qpmin=0 / ----- / cpuid=533541111039 / frame-threads=4 / numa-pools=+ / log-level=2 / input-csp=1 / input-res=1920x804 / interlace=0 / level-idc=0 / high-tier=1 / uhd-bd=0 / no-allow-non-conformance / no-repeat-headers / aud / no-hrd / info / hash=0 / no-temporal-layers / lookahead-slices=0 / no-splice / no-intra-refresh / no-ssim-rd / signhide / no-tskip / max-merge=3 / temporal-mvp / no-frame-dup / no-hme / no-analyze-src-pics / no-sao-non-deblock / selective-sao=4 / early-skip / rskip / no-fast-intra / no-tskip-fast / no-splitrd-skip / zone-count=0 / no-strict-cbr / no-rc-grain / no-const-vbv / sar=0 / overscan=0 / videoformat=5 / range=0 / colorprim=2 / transfer=2 / colormatrix=2 / chromaloc=0 / display-window=0 / cll=0,0 / min-luma=0 / max-luma=1023 / log2-max-poc-lsb=8 / vui-timing-info / vui-hrd-info / slices=1 / no-opt-qp-pps / no-opt-ref-list-length-pps / no-multi-pass-opt-rps / scenecut-bias=0.05 / hist-threshold=0.03 / no-opt-cu-delta-qp / no-aq-motion / no-hdr10 / no-hdr10-opt / no-dhdr10-opt / no-idr-recovery-sei / analysis-reuse-level=0 / analysis-save-reuse-level=0 / analysis-load-reuse-level=0 / scale-factor=0 / refine-intra=0 / refine-inter=0 / refine-mv=1 / refine-ctu-distortion=0 / no-limit-sao / ctu-info=0 / no-lowpass-dct / refine-analysis-type=0 / copy-pic=1 / max-ausize-factor=1.0 / no-dynamic-refine / no-single-sei / no-hevc-aq / no-svt / no-field / qp-adaptation-range=1.00 / scenecut-aware-qp=0conformance-window-offsets / right=0 / bottom=0 / NTMzNTQ= / decoder-max-rate=0 / no-vbv-live-multi-pass

  33. Default : Yes

  34. Forced : No


  35. Audio #1

  36. ID : 2

  37. Format : DTS

  38. Format/Info : Digital Theater Systems

  39. Codec ID : A_DTS

  40. Duration : 1 h 34 min

  41. Bit rate mode : Constant

  42. Bit rate : 1 510 kb/s

  43. Channel(s) : 6 channels

  44. Channel layout : C L R Ls Rs LFE

  45. Sampling rate : 48.0 kHz

  46. Frame rate : 93.750 FPS (512 SPF)

  47. Bit depth : 24 bits

  48. Compression mode : Lossy

  49. Stream size : 1 023 MiB (14%)

  50. Title : Cantonese

  51. Language : Chinese

  52. Default : Yes

  53. Forced : No


  54. Audio #2

  55. ID : 3

  56. Format : DTS

  57. Format/Info : Digital Theater Systems

  58. Codec ID : A_DTS

  59. Duration : 1 h 34 min

  60. Bit rate mode : Constant

  61. Bit rate : 1 510 kb/s

  62. Channel(s) : 6 channels

  63. Channel layout : C L R Ls Rs LFE

  64. Sampling rate : 48.0 kHz

  65. Frame rate : 93.750 FPS (512 SPF)

  66. Bit depth : 24 bits

  67. Compression mode : Lossy

  68. Stream size : 1 023 MiB (14%)

  69. Title : Mandarin

  70. Language : Chinese

  71. Default : No

  72. Forced : No


  73. Text #1

  74. ID : 4

  75. ID in the original source medium : 4609 (0x1201)

  76. Format : PGS

  77. Muxing mode : zlib

  78. Codec ID : S_HDMV/PGS

  79. Codec ID/Info : Picture based subtitle format used on BDs/HD-DVDs

  80. Duration : 1 h 29 min

  81. Bit rate : 30.6 kb/s

  82. Count of elements : 2454

  83. Stream size : 19.5 MiB (0%)

  84. Title : chs

  85. Language : Chinese

  86. Default : Yes

  87. Forced : No

  88. Original source medium : Blu-ray


  89. Text #2

  90. ID : 5

  91. ID in the original source medium : 4608 (0x1200)

  92. Format : PGS

  93. Muxing mode : zlib

  94. Codec ID : S_HDMV/PGS

  95. Codec ID/Info : Picture based subtitle format used on BDs/HD-DVDs

  96. Duration : 1 h 29 min

  97. Bit rate : 33.0 kb/s

  98. Count of elements : 2454

  99. Stream size : 21.0 MiB (0%)

  100. Title : cht

  101. Language : Chinese

  102. Default : No

  103. Forced : No

  104. Original source medium : Blu-ray


  105. Text #3

  106. ID : 6

  107. ID in the original source medium : 4610 (0x1202)

  108. Format : PGS

  109. Muxing mode : zlib

  110. Codec ID : S_HDMV/PGS

  111. Codec ID/Info : Picture based subtitle format used on BDs/HD-DVDs

  112. Duration : 1 h 29 min

  113. Bit rate : 32.2 kb/s

  114. Count of elements : 2458

  115. Stream size : 20.5 MiB (0%)

  116. Title : eng

  117. Language : English

  118. Default : No

  119. Forced : No

  120. Original source medium : Blu-ray


  121. Menu

  122. 00:00:00.000 : 第 01 章

  123. 00:08:02.791 : 第 02 章

  124. 00:19:23.166 : 第 03 章

  125. 00:26:26.708 : 第 04 章

  126. 00:33:55.833 : 第 05 章

  127. 00:39:33.833 : 第 06 章

  128. 00:45:57.583 : 第 07 章

  129. 00:56:02.708 : 第 08 章

  130. 01:03:09.416 : 第 09 章

  131. 01:11:00.375 : 第 10 章

  132. 01:18:26.250 : 第 11 章

  133. 01:29:47.375 : 第 12 章




复制代码



文件下载


除非特别注明,本文『反贪风暴2[国粤语配音/中文字幕].S.Storm.2016.1080p.BluRay.x265.10bit.DTS.2Audio 7.16GB』来源于互联网机器人自动抓取,非本站原创。 浮游电影网不对本文拥有版权,如有侵犯,请联系邮箱:fuyouu#yandex.com[#换成@]投诉。我们会在15个工作日内删除。 但烦请转载时请标明出处:“本文转载于『浮游电影网』,原文地址:https://www.fuyouu.com/14701.html

评论吧骚年!

发表你的见解   

昵称*

E-mail*(建议输入,以便收到博主回复的提示邮件)

验证码*

您可以使用eMule或eMule Mod(Windows)、aMule(Win、Linux、Mac)等软件下载eD2k链接。。
eMule收藏集(.emulecollection)文件是您选中的所有链接的列表文件。eMule可以直接下载它们。
按住SHIFT键选择可以选中多个选择框。
可用文件名和大小选择器来选择文件。
文件名选择器帮您根据文件名称或后缀来选择文件。不分大小写。
符号使用:
和:空格( )、+
不包含:-
或:|
转义:一对英文引号("");
匹配开头:^
匹配结尾:$
例如:
选中所有名称中包含有“eMule”或“0.49c”字眼,但不包含有“exe”字眼的:emule|0.49c -exe
选中所有名称的开头是“eMule”,结尾是“0.49c”的:^emule 0.49c$
选中所有名称中带有“eMule 0.49c”的(必须是“eMule 0.49c”,中间没有别的字符,不能是“eMule fake 0.49c”),需要转义:"emule 0.49c"
大小选择器帮您根据文件大小选择文件。