当前位置: 首页 >> 国产电影 >> 花鼓情[国语配音/中文字幕].Flower.Drum.Dream.of.Fengyang.County.2017.2160p.WEB-DL.H265.DD2.0 18.21GB >> 正文

花鼓情[国语配音/中文字幕].Flower.Drum.Dream.of.Fengyang.County.2017.2160p.WEB-DL.H265.DD2.0 18.21GB

2021年10月02日 20:36:38     电影发布:来源于网络     电影分类:国产电影     评论(0)    

花鼓情[国语配音/中文字幕].Flower.Drum.Dream.of.Fengyang.County.2017.2160p.WEB DL.H265.DD2.0 18.21GB 剧情片 国产电影  第1张

◎译 名 花鼓情 / Flower Drum Dream of Fengyang County

◎年 代 2017

◎产 地 中国大陆

◎类 别 剧情

◎语 言 汉语普通话

◎上映日期 2017-11-10(中国大陆)

◎IMDb链接 https://www.imdb.com/title//

◎豆瓣链接 https://movie.douban.com/subject/27190875/

◎片 长 90分钟

◎导 演 张海江 Haijiang Zhang (id:1362842)

◎演 员 柳佳宁 Jianing Liu (id:1383867)

陈皓天 Haotian Chen (id:1383868)

◎标 签 花鼓 / 青春 / 爱情 / 喜剧 / 剧情 / 国产 / 创业 / 中国大陆

◎简 介

在大学文艺汇演,徐丽跳的花鼓独舞引起了同学陈思齐的注意,临近毕业,打听到徐丽毕业回家乡的决定后,陈思齐在同学的建议下,申请毕业后去徐丽家乡做一名大学生村官。 徐丽毕业后回到家乡后积极开展大学生创业,陈思齐来到村支部报道,村支书和村长对他表示出了极大的关心和照顾。从小生活优越的他对于环境的艰苦超出了自己的预想。这让陈思齐心中打定主意尽快搞定徐丽离开这个鬼地方。 陈思齐在村支书的指导下,帮助徐丽慢慢在村里打开了局面,而思齐也渐渐感受到乡村穷人们和孩子们的生活条件需要有人来为他们创造一条致富的道路,陈思齐在亲友的支持下,留在农村,帮助徐丽一起带动大家致富,最终二人,喜结良缘,住进了他们为村里新建的房屋里。

  1. ##### MediaInfo ######

  2. General

  3. Complete name : 花鼓情.Flower.D[email protected]BBQDDQ.COM.mp4

  4. Format : MPEG-4

  5. Format profile : Base Media

  6. Codec ID : isom (isom/iso2/mp41)

  7. File size : 18.2 GiB

  8. Duration : 1 h 29 min

  9. Overall bit rate : 29.2 Mb/s

  10. Writing application : OurTV Multimedia Platform


  11. Video

  12. ID : 1

  13. Format : HEVC

  14. Format/Info : High Efficiency Video Coding

  15. Format profile : [email protected]@High

  16. Codec ID : hev1

  17. Codec ID/Info : High Efficiency Video Coding

  18. Duration : 1 h 29 min

  19. Bit rate : 28.8 Mb/s

  20. Width : 3 840 pixels

  21. Height : 2 160 pixels

  22. Display aspect ratio : 16:9

  23. Frame rate mode : Constant

  24. Frame rate : 25.000 FPS

  25. Color space : YUV

  26. Chroma subsampling : 4:2:0

  27. Bit depth : 8 bits

  28. Bits/(Pixel*Frame) : 0.139

  29. Stream size : 18.0 GiB (99%)

  30. Writing library : PONTUS-series

  31. Color range : Limited

  32. Codec configuration box : hvcC


  33. Audio

  34. ID : 2

  35. Format : AC-3

  36. Format/Info : Audio Coding 3

  37. Commercial name : Dolby Digital

  38. Codec ID : ac-3

  39. Duration : 1 h 29 min

  40. Bit rate mode : Constant

  41. Bit rate : 384 kb/s

  42. Channel(s) : 2 channels

  43. Channel layout : L R

  44. Sampling rate : 48.0 kHz

  45. Frame rate : 31.250 FPS (1536 SPF)

  46. Compression mode : Lossy

  47. Stream size : 245 MiB (1%)

  48. Service kind : Complete Main

  49. Default : Yes

  50. Alternate group : 1




复制代码



文件下载


除非特别注明,本文『花鼓情[国语配音/中文字幕].Flower.Drum.Dream.of.Fengyang.County.2017.2160p.WEB-DL.H265.DD2.0 18.21GB』来源于互联网机器人自动抓取,非本站原创。 浮游电影网不对本文拥有版权,如有侵犯,请联系邮箱:fuyouu#yandex.com[#换成@]投诉。我们会在15个工作日内删除。 但烦请转载时请标明出处:“本文转载于『浮游电影网』,原文地址:https://www.fuyouu.com/14700.html

评论吧骚年!

发表你的见解   

昵称*

E-mail*(建议输入,以便收到博主回复的提示邮件)

验证码*

您可以使用eMule或eMule Mod(Windows)、aMule(Win、Linux、Mac)等软件下载eD2k链接。。
eMule收藏集(.emulecollection)文件是您选中的所有链接的列表文件。eMule可以直接下载它们。
按住SHIFT键选择可以选中多个选择框。
可用文件名和大小选择器来选择文件。
文件名选择器帮您根据文件名称或后缀来选择文件。不分大小写。
符号使用:
和:空格( )、+
不包含:-
或:|
转义:一对英文引号("");
匹配开头:^
匹配结尾:$
例如:
选中所有名称中包含有“eMule”或“0.49c”字眼,但不包含有“exe”字眼的:emule|0.49c -exe
选中所有名称的开头是“eMule”,结尾是“0.49c”的:^emule 0.49c$
选中所有名称中带有“eMule 0.49c”的(必须是“eMule 0.49c”,中间没有别的字符,不能是“eMule fake 0.49c”),需要转义:"emule 0.49c"
大小选择器帮您根据文件大小选择文件。