当前位置: 首页 >> 国产电影 >> 暴裂无声[国语配音/中文字幕].Wrath.of.Silence.2017.1080p.BluRay.x265.10bit.DTS 5.41GB >> 正文

暴裂无声[国语配音/中文字幕].Wrath.of.Silence.2017.1080p.BluRay.x265.10bit.DTS 5.41GB

2021年10月01日 14:22:54     电影发布:来源于网络     电影分类:国产电影     评论(0)    

暴裂无声[国语配音/中文字幕].Wrath.of.Silence.2017.1080p.BluRay.x265.10bit.DTS 5.41GB 悬疑片 犯罪片 剧情片 国产电影  第1张

◎译 名 暴裂无声 / 恶人 / 寻山 / 山野追踪 / Villain / Wrath of Silence

◎年 代 2017

◎产 地 中国大陆

◎类 别 剧情 / 悬疑 / 犯罪

◎语 言 汉语普通话

◎上映日期 2018-04-04(中国大陆) / 2017-07-27(FIRST青年影展)

◎IMDb链接 https://www.imdb.com/title/tt6389316/

◎豆瓣评分 8.2/10 (418933人评价)

◎豆瓣链接 https://movie.douban.com/subject/26647117/

◎片 长 120分钟

◎导 演 忻钰坤 Yukun Xin (id:1341214)

◎编 剧 忻钰坤 Yukun Xin (id:1341214)

◎演 员 宋洋 Yang Song (id:1316200)

姜武 Wu Jiang (id:1274290)

袁文康 Wenkang Yuan (id:1274820)

谭卓 Zhuo Tan (id:1312976)

王梓尘 Zichen Wang (id:1350899)

安琥 Hu An (id:1316825)

伊天锴 Tiankai YIn (id:1394302)

李亚真 Yazhen Li (id:1352384)

陈进 (id:1461825)

高一天 Yitian Gao (id:1397720)

宋文 Wen Song (id:1397719)

杨巍 Wei Yang (id:1397529)

何山 Shan He (id:1369553)

付舒 Shu Fu (id:1440433)

李丹枫 Danfeng Li (id:1401862)

刘彦 Yan Liu (id:1409692)

李洪彪 Hongbiao Li (id:1458766)

陆云帆 Yunfan Lu (id:1441400)

王红卫 Hongwei Wang (id:1331159)

◎标 签 悬疑 / 犯罪 / 人性 / 黑色 / 中国大陆 / 剧情 / 华语 / 黑色幽默

◎简 介

故事发生在偏僻贫瘠的山村之中。张保民(宋洋 饰)是一名矿工,一天,他被妻子翠霞(谭卓 饰)叫回了家,原来,他们的儿子失踪了。带着儿子的照片,不会说话的张保民踏上了寻子之路,途中,他遇见了大资本家昌万年(姜武 饰)的爪牙,两方人马起了冲突,昌万年骗张保民自己知道他儿子的下落,实际上,他隐藏了一个黑暗的秘密。

昌万年一直靠着行贿非法收购煤矿以牟取暴利,身为他的律师,徐文杰知道了太多不可告人的秘密。公检法机构开始着手调查昌万年的公司,徐文杰在这个节骨眼上玩起了失踪。为了逼迫徐文杰就范,昌万年绑架了他的女儿。

◎获奖情况 (共2项)

第5届豆瓣电影年度榜单 (2018)

评分最高的华语电影(提名)

第4届豆瓣电影年度榜单 (2017)

年度华语独立佳作(提名)

  1. ##### MediaInfo ######

  2. General

  3. Unique ID : 260239673294681938211024989858104177060 (0xC3C85683FE9ECDAD56CF7EB565F571A4)

  4. Complete name : [email protected]OM.mkv

  5. Format : Matroska

  6. Format version : Version 4

  7. File size : 5.41 GiB

  8. Duration : 1 h 59 min

  9. Overall bit rate : 6 466 kb/s

  10. Movie name : Wrath of slience - Blu-ray?

  11. Encoded date : UTC 2021-09-29 14:22:35

  12. Writing application : mkvmerge v61.0.0 ('So') 64-bit

  13. Writing library : libebml v1.4.2 + libmatroska v1.6.4

  14. Cover : Yes

  15. Attachments : WenQuanWeiMiHei-1.ttf / cover.jpg


  16. Video

  17. ID : 1

  18. Format : HEVC

  19. Format/Info : High Efficiency Video Coding

  20. Format profile : Main [email protected]@Main

  21. Codec ID : V_MPEGH/ISO/HEVC

  22. Duration : 1 h 59 min

  23. Bit rate : 4 949 kb/s

  24. Width : 1 920 pixels

  25. Height : 804 pixels

  26. Display aspect ratio : 2.40:1

  27. Frame rate mode : Constant

  28. Frame rate : 24.000 FPS

  29. Color space : YUV

  30. Chroma subsampling : 4:2:0

  31. Bit depth : 10 bits

  32. Bits/(Pixel*Frame) : 0.134

  33. Stream size : 4.14 GiB (77%)

  34. Writing library : x265 3.5+2-g2b25c9ba0+45:[Windows][GCC 10.2.0][64 bit] Yuuki 10bit+8bit+12bit

  35. Encoding settings : rc=crf / crf=17.0000 / qcomp=0.65 / qpstep=4 / stats-write=0 / stats-read=0 / no-lossless / no-cu-lossless / aq-mode=3 / aq-strength=0.80 / cbqpoffs=0 / crqpoffs=0 / ipratio=1.40 / pbratio=1.30 / psy-rd=2.00 / psy-rdoq=0.00 / deblock=0:0 / ref=6 / limit-refs=1 / no-limit-modes / bframes=8 / b-adapt=2 / bframe-bias=0 / b-pyramid / b-intra / weightp / weightb / min-keyint=24 / max-keyint=240 / rc-lookahead=24 / gop-lookahead=0 / NTMzNTQ=uuDQuD2mJt9fsCf / scenecut=40 / hist-scenecut=0 / radl=0 / max-cu-size=64 / min-cu-size=8 / me=3 / subme=7 / merange=48 / rdoq-level=0 / rd=4 / rdpenalty=0 / dynamic-rd=0.00 / no-rd-refine / ----- / cutree / sao / no-rect / no-amp / no-open-gop / wpp / no-pmode / pme / no-psnr / no-ssim / nr-intra=0 / nr-inter=0 / no-constrained-intra / no-strong-intra-smoothing / max-tu-size=32 / tu-inter-depth=1 / tu-intra-depth=1 / limit-tu=0 / qg-size=32 / qpmax=69 / qpmin=0 / ----- / cpuid=533541111039 / frame-threads=4 / numa-pools=+ / log-level=2 / input-csp=1 / input-res=1920x804 / interlace=0 / level-idc=0 / high-tier=1 / uhd-bd=0 / no-allow-non-conformance / no-repeat-headers / aud / no-hrd / info / hash=0 / no-temporal-layers / lookahead-slices=0 / no-splice / no-intra-refresh / no-ssim-rd / signhide / no-tskip / max-merge=3 / temporal-mvp / no-frame-dup / no-hme / no-analyze-src-pics / no-sao-non-deblock / selective-sao=4 / early-skip / rskip / no-fast-intra / no-tskip-fast / no-splitrd-skip / zone-count=0 / no-strict-cbr / no-rc-grain / no-const-vbv / sar=0 / overscan=0 / videoformat=5 / range=0 / colorprim=2 / transfer=2 / colormatrix=2 / chromaloc=0 / display-window=0 / cll=0,0 / min-luma=0 / max-luma=1023 / log2-max-poc-lsb=8 / vui-timing-info / vui-hrd-info / slices=1 / no-opt-qp-pps / no-opt-ref-list-length-pps / no-multi-pass-opt-rps / scenecut-bias=0.05 / hist-threshold=0.03 / no-opt-cu-delta-qp / no-aq-motion / no-hdr10 / no-hdr10-opt / no-dhdr10-opt / no-idr-recovery-sei / analysis-reuse-level=0 / analysis-save-reuse-level=0 / analysis-load-reuse-level=0 / scale-factor=0 / refine-intra=0 / refine-inter=0 / refine-mv=1 / refine-ctu-distortion=0 / no-limit-sao / ctu-info=0 / no-lowpass-dct / refine-analysis-type=0 / copy-pic=1 / max-ausize-factor=1.0 / no-dynamic-refine / no-single-sei / no-hevc-aq / no-svt / no-field / qp-adaptation-range=1.00 / scenecut-aware-qp=0conformance-window-offsets / right=0 / bottom=0 / NTMzNTQ= / decoder-max-rate=0 / no-vbv-live-multi-pass

  36. Default : Yes

  37. Forced : No


  38. Audio

  39. ID : 2

  40. ID in the original source medium : 4352 (0x1100)

  41. Format : DTS

  42. Format/Info : Digital Theater Systems

  43. Codec ID : A_DTS

  44. Duration : 1 h 59 min

  45. Bit rate mode : Constant

  46. Bit rate : 1 509 kb/s

  47. Channel(s) : 6 channels

  48. Channel layout : C L R Ls Rs LFE

  49. Sampling rate : 48.0 kHz

  50. Frame rate : 93.750 FPS (512 SPF)

  51. Bit depth : 16 bits

  52. Compression mode : Lossy

  53. Stream size : 1.26 GiB (23%)

  54. Language : Chinese

  55. Default : Yes

  56. Forced : No

  57. Original source medium : Blu-ray


  58. Text #1

  59. ID : 3

  60. Format : ASS

  61. Codec ID : S_TEXT/ASS

  62. Codec ID/Info : Advanced Sub Station Alpha

  63. Duration : 1 h 50 min

  64. Bit rate : 31 b/s

  65. Count of elements : 651

  66. Compression mode : Lossless

  67. Stream size : 25.8 KiB (0%)

  68. Title : chs

  69. Language : Chinese

  70. Default : Yes

  71. Forced : No


  72. Text #2

  73. ID : 4

  74. Format : ASS

  75. Codec ID : S_TEXT/ASS

  76. Codec ID/Info : Advanced Sub Station Alpha

  77. Duration : 1 h 50 min

  78. Bit rate : 31 b/s

  79. Count of elements : 651

  80. Compression mode : Lossless

  81. Stream size : 25.8 KiB (0%)

  82. Title : cht

  83. Language : Chinese

  84. Default : No

  85. Forced : No


  86. Text #3

  87. ID : 5

  88. Format : UTF-8

  89. Codec ID : S_TEXT/UTF8

  90. Codec ID/Info : UTF-8 Plain Text

  91. Duration : 1 h 53 min

  92. Bit rate : 18 b/s

  93. Count of elements : 658

  94. Stream size : 15.2 KiB (0%)

  95. Title : eng

  96. Language : English

  97. Default : No

  98. Forced : No


  99. Menu

  100. 00:00:00.000 : Chapter 01

  101. 00:09:27.416 : Chapter 02

  102. 00:20:07.958 : Chapter 03

  103. 00:30:39.708 : Chapter 04

  104. 00:39:31.583 : Chapter 05

  105. 00:52:13.708 : Chapter 06

  106. 01:01:03.666 : Chapter 07

  107. 01:14:29.166 : Chapter 08

  108. 01:22:39.250 : Chapter 09

  109. 01:29:19.583 : Chapter 10

  110. 01:38:33.541 : Chapter 11

  111. 01:47:53.000 : Chapter 12



文件下载


除非特别注明,本文『暴裂无声[国语配音/中文字幕].Wrath.of.Silence.2017.1080p.BluRay.x265.10bit.DTS 5.41GB』来源于互联网机器人自动抓取,非本站原创。 浮游电影网不对本文拥有版权,如有侵犯,请联系邮箱:fuyouu#yandex.com[#换成@]投诉。我们会在15个工作日内删除。 但烦请转载时请标明出处:“本文转载于『浮游电影网』,原文地址:https://www.fuyouu.com/14695.html

评论吧骚年!

发表你的见解   

昵称*

E-mail*(建议输入,以便收到博主回复的提示邮件)

验证码*

您可以使用eMule或eMule Mod(Windows)、aMule(Win、Linux、Mac)等软件下载eD2k链接。。
eMule收藏集(.emulecollection)文件是您选中的所有链接的列表文件。eMule可以直接下载它们。
按住SHIFT键选择可以选中多个选择框。
可用文件名和大小选择器来选择文件。
文件名选择器帮您根据文件名称或后缀来选择文件。不分大小写。
符号使用:
和:空格( )、+
不包含:-
或:|
转义:一对英文引号("");
匹配开头:^
匹配结尾:$
例如:
选中所有名称中包含有“eMule”或“0.49c”字眼,但不包含有“exe”字眼的:emule|0.49c -exe
选中所有名称的开头是“eMule”,结尾是“0.49c”的:^emule 0.49c$
选中所有名称中带有“eMule 0.49c”的(必须是“eMule 0.49c”,中间没有别的字符,不能是“eMule fake 0.49c”),需要转义:"emule 0.49c"
大小选择器帮您根据文件大小选择文件。