当前位置: 首页 >> 国产电影 >> 怒火·重案[国语配音/中文字幕].Raging.Fire.2021.1080p.WEB-DL.H264.DDP5.1.2Audio 2.26GB >> 正文

怒火·重案[国语配音/中文字幕].Raging.Fire.2021.1080p.WEB-DL.H264.DDP5.1.2Audio 2.26GB

2021年10月01日 14:20:30     电影发布:来源于网络     电影分类:国产电影     评论(0)    

怒火·重案[国语配音/中文字幕].Raging.Fire.2021.1080p.WEB DL.H264.DDP5.1.2Audio 2.26GB 犯罪片 动作片 国产电影  第1张

◎译 名 怒火·重案 / 怒火重案 / 怒火战 / 火拼 / Crossfire / Raging Fire

◎片 名 怒火

◎年 代 2021

◎产 地 中国香港 / 中国大陆

◎类 别 动作 / 犯罪

◎语 言 粤语 / 汉语普通话

◎上映日期 2021-07-30(中国大陆) / 2021-08-19(中国香港)

◎IMDb链接 https://www.imdb.com/title/tt8165192/

◎豆瓣评分 7.5/10 (264429人评价)

◎豆瓣链接 https://movie.douban.com/subject/30174085/

◎片 长 128分钟

◎导 演 陈木胜 Benny Chan (id:1274293)

◎编 剧 陈木胜 Benny Chan (id:1274293)

凌伟骏 Ryan Wai-Chun Ling (id:1433091)

唐耀良 Yiu-leung Tong (id:1364033)

◎演 员 甄子丹 Donnie Yen (id:1025194)

谢霆锋 Nicholas Tse (id:1050053)

秦岚 Lan Qin (id:1274294)

谭耀文 Patrick Tam (id:1033280)

黄德斌 Tak-bun Wong (id:1274442)

吴浩康 Deep Ng (id:1313361)

何珮瑜 Jeana Ho (id:1316213)

杨天宇 Angus Yeung (id:1387692)

汤君慈 Bruce Tong (id:1339998)

麦亨利 Henry Mai (id:1377803)

喻亢 Kang Yu (id:1339113)

张文杰 Man Kit Cheung (id:1336383)

胡子彤 Tony Tsz-Tung Wu (id:1362877)

吕良伟 Ray Lui (id:1037706)

任达华 Simon Yam (id:1031194)

袁富华 Fu-wah Yuen (id:1359508)

林国斌 Ben Lam (id:1289293)

卢惠光 Ken Lo (id:1032633)

陈家乐 Carlos Chan (id:1275972)

张国强 Kwok Keung Cheung (id:1274568)

汤怡 Kathy Tong (id:1314475)

高战 Chris Collins (id:1379355)

辛格·哈提汗·比托 Singh Hartihan Bitto (id:1333958)

克里斯·柯林斯 K.C. Collins (id:1338050)

郭政鸿 Jing-hung Kwok (id:1044122)

麦长青 Cheung-Ching Mak (id:1274580)

陈木胜 Benny Chan (id:1274293)

甄子丹 Donnie Yen (id:1025194)

邵剑秋 Kim-Chau Shiu (id:1413263)

陈一奇 Yiqi Chen (id:1446359)

程武 Wu Cheng (id:1406349)

杨受成 Albert Yeung (id:1313455)

高莉 Anna Gao (id:1432407)

郑志昊 Zhihao Zheng (id:1397531)

李绮雯 Yee-Man Lee (id:1353241)

杨雪雯 (id:1450635)

区椲麟 (id:1450636)

梁琳 Lin Liang (id:1400716)

黎子良 Bernard Lai (id:1438022)

林明杰 Eric Lin (id:1374637)

张博 (id:1450637)

张康达 Hong Tat Cheung (id:1395690)

谢炀 (id:1450638)

◎标 签 警匪 / 中国香港 / 动作 / 枪战 / 犯罪 / 2021 / 悬疑 / 中国大陆

◎简 介

重案组布网围剿国际毒枭,突然杀出一组蒙面悍匪“黑吃黑”,更冷血屠杀众警察。重案组督察张崇邦(甄子丹 饰)亲睹战友被杀,深入追查发现,悍匪首领竟是昔日战友邱刚敖(谢霆锋 饰)。原来敖也曾是警队明日之星,而将敖推向罪恶深渊的人,却正是邦。宿命令二人再次纠缠,一切恩怨张崇邦如何作出了断……

  1. ##### MediaInfo ######

  2. General

  3. Unique ID : 310174738474753601006358288079258964939 (0xE9597B4F84A5D83B2020B60E4E74D3CB)

  4. Complete name : 怒火·重案[email protected]OM.mkv

  5. Format : Matroska

  6. Format version : Version 4

  7. File size : 2.26 GiB

  8. Duration : 2 h 8 min

  9. Overall bit rate : 2 520 kb/s

  10. Encoded date : UTC 2021-10-01 01:48:51

  11. Writing application : mkvmerge v51.0.0 ('I Wish') 64-bit

  12. Writing library : libebml v1.4.0 + libmatroska v1.6.2


  13. Video

  14. ID : 1

  15. Format : AVC

  16. Format/Info : Advanced Video Codec

  17. Format profile : [email protected]

  18. Format settings : CABAC / 3 Ref Frames

  19. Format settings, CABAC : Yes

  20. Format settings, Reference frames : 3 frames

  21. Codec ID : V_MPEG4/ISO/AVC

  22. Duration : 2 h 8 min

  23. Bit rate : 1 815 kb/s

  24. Width : 1 920 pixels

  25. Height : 808 pixels

  26. Display aspect ratio : 2.40:1

  27. Frame rate mode : Constant

  28. Frame rate : 25.000 FPS

  29. Color space : YUV

  30. Chroma subsampling : 4:2:0

  31. Bit depth : 8 bits

  32. Scan type : Progressive

  33. Bits/(Pixel*Frame) : 0.047

  34. Stream size : 1.63 GiB (72%)

  35. Writing library : qiyi.com vtc-test

  36. Default : Yes

  37. Forced : No

  38. Color range : Limited

  39. Color primaries : BT.709

  40. Transfer characteristics : BT.709

  41. Matrix coefficients : BT.709


  42. Audio #1

  43. ID : 2

  44. Format : E-AC-3

  45. Format/Info : Enhanced AC-3

  46. Commercial name : Dolby Digital Plus

  47. Codec ID : A_EAC3

  48. Duration : 2 h 8 min

  49. Bit rate mode : Constant

  50. Bit rate : 256 kb/s

  51. Channel(s) : 6 channels

  52. Channel layout : L R C LFE Ls Rs

  53. Sampling rate : 48.0 kHz

  54. Frame rate : 31.250 FPS (1536 SPF)

  55. Compression mode : Lossy

  56. Stream size : 235 MiB (10%)

  57. Title : 普通话

  58. Language : Chinese

  59. Service kind : Complete Main

  60. Default : Yes

  61. Forced : No


  62. Audio #2

  63. ID : 3

  64. Format : E-AC-3

  65. Format/Info : Enhanced AC-3

  66. Commercial name : Dolby Digital Plus

  67. Codec ID : A_EAC3

  68. Duration : 2 h 8 min

  69. Bit rate mode : Constant

  70. Bit rate : 256 kb/s

  71. Channel(s) : 6 channels

  72. Channel layout : L R C LFE Ls Rs

  73. Sampling rate : 48.0 kHz

  74. Frame rate : 31.250 FPS (1536 SPF)

  75. Compression mode : Lossy

  76. Stream size : 235 MiB (10%)

  77. Title : 粤语

  78. Language : Chinese

  79. Service kind : Complete Main

  80. Default : No

  81. Forced : No


  82. Audio #3

  83. ID : 4

  84. Format : AAC LC

  85. Format/Info : Advanced Audio Codec Low Complexity

  86. Codec ID : A_AAC-2

  87. Duration : 2 h 8 min

  88. Bit rate : 192 kb/s

  89. Channel(s) : 2 channels

  90. Channel layout : L R

  91. Sampling rate : 44.1 kHz

  92. Frame rate : 43.066 FPS (1024 SPF)

  93. Compression mode : Lossy

  94. Stream size : 174 MiB (8%)

  95. Language : Chinese

  96. Default : No

  97. Forced : No




复制代码



文件下载


除非特别注明,本文『怒火·重案[国语配音/中文字幕].Raging.Fire.2021.1080p.WEB-DL.H264.DDP5.1.2Audio 2.26GB』来源于互联网机器人自动抓取,非本站原创。 浮游电影网不对本文拥有版权,如有侵犯,请联系邮箱:fuyouu#yandex.com[#换成@]投诉。我们会在15个工作日内删除。 但烦请转载时请标明出处:“本文转载于『浮游电影网』,原文地址:https://www.fuyouu.com/14694.html

评论吧骚年!

发表你的见解   

昵称*

E-mail*(建议输入,以便收到博主回复的提示邮件)

验证码*

您可以使用eMule或eMule Mod(Windows)、aMule(Win、Linux、Mac)等软件下载eD2k链接。。
eMule收藏集(.emulecollection)文件是您选中的所有链接的列表文件。eMule可以直接下载它们。
按住SHIFT键选择可以选中多个选择框。
可用文件名和大小选择器来选择文件。
文件名选择器帮您根据文件名称或后缀来选择文件。不分大小写。
符号使用:
和:空格( )、+
不包含:-
或:|
转义:一对英文引号("");
匹配开头:^
匹配结尾:$
例如:
选中所有名称中包含有“eMule”或“0.49c”字眼,但不包含有“exe”字眼的:emule|0.49c -exe
选中所有名称的开头是“eMule”,结尾是“0.49c”的:^emule 0.49c$
选中所有名称中带有“eMule 0.49c”的(必须是“eMule 0.49c”,中间没有别的字符,不能是“eMule fake 0.49c”),需要转义:"emule 0.49c"
大小选择器帮您根据文件大小选择文件。