当前位置: 首页 >> 日韩电影 >> 7号室[中文字幕].Room.No.7.2017.1080p.FriDay.WEB-DL.H264.AAC 2.26GB >> 正文

7号室[中文字幕].Room.No.7.2017.1080p.FriDay.WEB-DL.H264.AAC 2.26GB

2021年10月01日 14:11:20     电影发布:来源于网络     电影分类:日韩电影     评论(0)    

7号室[中文字幕].Room.No.7.2017.1080p.FriDay.WEB DL.H264.AAC 2.26GB 悬疑片 犯罪片 喜剧片 日韩电影  第1张

◎译 名 7号室 / 尸踪7号房(台) / 7号房尸踪案 / Room No.7

◎片 名 7??

◎年 代 2017

◎产 地 韩国

◎类 别 喜剧 / 悬疑 / 犯罪

◎语 言 韩语

◎上映日期 2017-07-13(富川奇幻电影节) / 2017-11-15(韩国)

◎IMDb链接 https://www.imdb.com/title/tt7465704/

◎豆瓣评分 6.4/10 (4048人评价)

◎豆瓣链接 https://movie.douban.com/subject/26901393/

◎片 长 100分钟

◎导 演 李容承 Yong-seung Lee (id:1335035)

◎编 剧 李容承 Yong-seung Lee (id:1335035)

◎演 员 申河均 Ha-kyun Shin (id:1140667)

都暻秀 Kyung-soo Doh (id:1336965)

金东英 Dong-yeong Kim (id:1362355)

金钟秀 Jong-soo Kim (id:1366651)

金钟求 Kim Jong-goo (id:1379540)

朴修荣 Park Soo-young (id:1379542)

全锡浩 Suk-Ho Jun (id:1350943)

郑熙泰 Hee-tae Jung (id:1378175)

金度允 Do-yoon Kim (id:1379543)

黄贞敏 Jeong-min Hwang (id:1021154)

郑胜吉 Seung-gil Jeong (id:1379544)

金智英 Ji-yeong Kim (id:1053204)

金泰汉 Kim Tae-han (id:1385201)

禹志贤 Woo Ji-hyeon (id:1385203)

Kim Min-joong Kim Min-joong (id:1386374)

崔武成 Moo-seong Choi (id:1339598)

朴根禄 Keun-rok Park (id:1366649)

金基政 Gi-jeong Kim (id:1399061)

朴晨雅 Shin-Ah Park (id:1440706)

尹大烈 Dae-yeol Yoon (id:1399216)

◎标 签 韩国 / 黑色幽默 / 悬疑 / 2017 / 剧情 / 电影 / 人性 / 喜剧

◎简 介

电影《7号室》以首尔一家即将倒闭的DVD房为背景,描述两个男人在DVD房7号室里,为了掩饰攸关性命的秘密,还有摆脱眼前困境而努力的故事。

  1. ##### MediaInfo ######

  2. General

  3. Unique ID : 315639672503497562305123593968970671489 (0xED75FD5C657828EFD9F78F0BEB44A581)

  4. Complete name : [email protected]

  5. Format : Matroska

  6. Format version : Version 4

  7. File size : 2.26 GiB

  8. Duration : 1 h 40 min

  9. Overall bit rate : 3 228 kb/s

  10. Encoded date : UTC 2021-06-25 06:48:01

  11. Writing application : mkvmerge v56.1.0 ('My Friend') 64-bit

  12. Writing library : libebml v1.4.2 + libmatroska v1.6.4


  13. Video

  14. ID : 1

  15. Format : AVC

  16. Format/Info : Advanced Video Codec

  17. Format profile : [email protected]

  18. Format settings : CABAC / 4 Ref Frames

  19. Format settings, CABAC : Yes

  20. Format settings, Reference frames : 4 frames

  21. Codec ID : V_MPEG4/ISO/AVC

  22. Duration : 1 h 40 min

  23. Bit rate mode : Constant

  24. Bit rate : 3 100 kb/s

  25. Nominal bit rate : 4 000 kb/s

  26. Width : 1 920 pixels

  27. Height : 1 080 pixels

  28. Display aspect ratio : 16:9

  29. Frame rate mode : Constant

  30. Frame rate : 29.970 (30000/1001/53354) FPS

  31. Color space : YUV

  32. Chroma subsampling : 4:2:0

  33. Bit depth : 8 bits

  34. Scan type : Progressive

  35. Bits/(Pixel*Frame) : 0.050

  36. Stream size : 2.17 GiB (96%)

  37. Language : English

  38. Default : Yes

  39. Forced : No


  40. Audio

  41. ID : 2

  42. Format : AAC LC

  43. Format/Info : Advanced Audio Codec Low Complexity

  44. Codec ID : A_AAC-2

  45. Duration : 1 h 40 min

  46. Bit rate : 125 kb/s

  47. Channel(s) : 2 channels

  48. Channel layout : L R

  49. Sampling rate : 48.0 kHz

  50. Frame rate : 46.875 FPS (1024 SPF)

  51. Compression mode : Lossy

  52. Delay relative to video : 1 ms

  53. Stream size : 89.9 MiB (4%)

  54. Language : Korean

  55. Default : Yes

  56. Forced : No


  57. Text #1

  58. ID : 3

  59. Format : UTF-8

  60. Codec ID : S_TEXT/UTF8

  61. Codec ID/Info : UTF-8 Plain Text

  62. Duration : 1 h 36 min

  63. Bit rate : 42 b/s

  64. Count of elements : 1213

  65. Stream size : 29.7 KiB (0%)

  66. Title : Chinese Simplified

  67. Language : Chinese

  68. Default : Yes

  69. Forced : No


  70. Text #2

  71. ID : 4

  72. Format : UTF-8

  73. Codec ID : S_TEXT/UTF8

  74. Codec ID/Info : UTF-8 Plain Text

  75. Duration : 1 h 36 min

  76. Bit rate : 42 b/s

  77. Count of elements : 1213

  78. Stream size : 29.7 KiB (0%)

  79. Title : Chinese Traditional

  80. Language : Chinese

  81. Default : No

  82. Forced : No




复制代码



文件下载


除非特别注明,本文『7号室[中文字幕].Room.No.7.2017.1080p.FriDay.WEB-DL.H264.AAC 2.26GB』来源于互联网机器人自动抓取,非本站原创。 浮游电影网不对本文拥有版权,如有侵犯,请联系邮箱:fuyouu#yandex.com[#换成@]投诉。我们会在15个工作日内删除。 但烦请转载时请标明出处:“本文转载于『浮游电影网』,原文地址:https://www.fuyouu.com/14687.html

评论吧骚年!

发表你的见解   

昵称*

E-mail*(建议输入,以便收到博主回复的提示邮件)

验证码*

您可以使用eMule或eMule Mod(Windows)、aMule(Win、Linux、Mac)等软件下载eD2k链接。。
eMule收藏集(.emulecollection)文件是您选中的所有链接的列表文件。eMule可以直接下载它们。
按住SHIFT键选择可以选中多个选择框。
可用文件名和大小选择器来选择文件。
文件名选择器帮您根据文件名称或后缀来选择文件。不分大小写。
符号使用:
和:空格( )、+
不包含:-
或:|
转义:一对英文引号("");
匹配开头:^
匹配结尾:$
例如:
选中所有名称中包含有“eMule”或“0.49c”字眼,但不包含有“exe”字眼的:emule|0.49c -exe
选中所有名称的开头是“eMule”,结尾是“0.49c”的:^emule 0.49c$
选中所有名称中带有“eMule 0.49c”的(必须是“eMule 0.49c”,中间没有别的字符,不能是“eMule fake 0.49c”),需要转义:"emule 0.49c"
大小选择器帮您根据文件大小选择文件。