当前位置: 首页 >> 国产电影 >> 老大不小之都会好的[国语配音/中文字幕].Everything.Will.Be.Fine.2021.4K.WEB-DL.H265.DDP2.0 3.05GB >> 正文

老大不小之都会好的[国语配音/中文字幕].Everything.Will.Be.Fine.2021.4K.WEB-DL.H265.DDP2.0 3.05GB

2021年10月01日 14:08:27     电影发布:来源于网络     电影分类:国产电影     评论(0)    

老大不小之都会好的[国语配音/中文字幕].Everything.Will.Be.Fine.2021.4K.WEB DL.H265.DDP2.0 3.05GB 家庭片 剧情片 国产电影  第1张

◎译 名 老大不小之都会好的 / 老大不小2 / 老大不小Ⅱ / 老大不小Ⅱ之都会好的

◎年 代 2021

◎产 地 中国大陆

◎类 别 剧情 / 家庭

◎语 言 汉语普通话

◎上映日期 2021-09-30(中国大陆)

◎IMDb链接 https://www.imdb.com/title//

◎豆瓣链接 https://movie.douban.com/subject/35209637/

◎导 演 安佳星 Jiaxing An (id:1421514)

高炜 Wei Gao (id:1440746)

◎编 剧 季雯 Wen Ji (id:1435914)

◎演 员 高炜 Wei Gao (id:1440746)

赵莹 Cyber Jelly (id:1313583)

郭晓小 Xiaoxiao Guo (id:1334595)

赵燕国彰 Yanguozhang Zhao (id:1275979)

孔琳 Lin Kong (id:1015186)

马文波 Wenbo Ma (id:1352808)

王璐瑶 Luyao Wang (id:1315289)

马頔 Di Ma (id:1336249)

3bangz 3bangz (id:1462182)

高炜 Wei Gao (id:1440746)

◎标 签 还行吧 / 感动死了

◎简 介

知名美妆博主Didi和幼儿园音乐老师高炜虽然并不富裕,却认真积极的过好每一天,Didi在一次体检中查出淋巴癌,生命进入倒计时。

Didi想跟高炜提分手,知道真相的高炜却选择用日常的点滴来安慰Didi,他相信一切都会好的。他选择陪着她,哪怕只有短短一两年。但是Didi的状况日益严重,她决定告诉身边的家人朋友,她得了淋巴癌,她也决定通过自己的直播平台,记录下自己剩余的日子...

  1. ##### MediaInfo ######

  2. General

  3. Unique ID : 177334588667832612235635775236901376635 (0x856966424BC8FAEAF8B6384B37CB127B)

  4. Complete name : 老大不小之都会好的[email protected].COM.mkv

  5. Format : Matroska

  6. Format version : Version 4

  7. File size : 3.05 GiB

  8. Duration : 1 h 44 min

  9. Overall bit rate : 4 167 kb/s

  10. Encoded date : UTC 2021-09-30 13:01:03

  11. Writing application : mkvmerge v61.0.0 ('So') 64-bit

  12. Writing library : libebml v1.4.2 + libmatroska v1.6.4


  13. Video

  14. ID : 1

  15. Format : HEVC

  16. Format/Info : High Efficiency Video Coding

  17. Format profile : [email protected]@Main

  18. Codec ID : V_MPEGH/ISO/HEVC

  19. Duration : 1 h 44 min

  20. Bit rate : 4 069 kb/s

  21. Width : 3 840 pixels

  22. Height : 1 608 pixels

  23. Display aspect ratio : 2.40:1

  24. Frame rate mode : Constant

  25. Frame rate : 24.000 FPS

  26. Color space : YUV

  27. Chroma subsampling : 4:2:0

  28. Bit depth : 8 bits

  29. Bits/(Pixel*Frame) : 0.027

  30. Stream size : 2.98 GiB (98%)

  31. Default : Yes

  32. Forced : No


  33. Audio

  34. ID : 2

  35. Format : E-AC-3

  36. Format/Info : Enhanced AC-3

  37. Commercial name : Dolby Digital Plus

  38. Codec ID : A_EAC3

  39. Duration : 1 h 44 min

  40. Bit rate mode : Constant

  41. Bit rate : 96.0 kb/s

  42. Channel(s) : 2 channels

  43. Channel layout : L R

  44. Sampling rate : 48.0 kHz

  45. Frame rate : 31.250 FPS (1536 SPF)

  46. Compression mode : Lossy

  47. Stream size : 71.9 MiB (2%)

  48. Service kind : Complete Main

  49. Default : Yes

  50. Forced : No




复制代码



文件下载


除非特别注明,本文『老大不小之都会好的[国语配音/中文字幕].Everything.Will.Be.Fine.2021.4K.WEB-DL.H265.DDP2.0 3.05GB』来源于互联网机器人自动抓取,非本站原创。 浮游电影网不对本文拥有版权,如有侵犯,请联系邮箱:fuyouu#yandex.com[#换成@]投诉。我们会在15个工作日内删除。 但烦请转载时请标明出处:“本文转载于『浮游电影网』,原文地址:https://www.fuyouu.com/14685.html

评论吧骚年!

发表你的见解   

昵称*

E-mail*(建议输入,以便收到博主回复的提示邮件)

验证码*

您可以使用eMule或eMule Mod(Windows)、aMule(Win、Linux、Mac)等软件下载eD2k链接。。
eMule收藏集(.emulecollection)文件是您选中的所有链接的列表文件。eMule可以直接下载它们。
按住SHIFT键选择可以选中多个选择框。
可用文件名和大小选择器来选择文件。
文件名选择器帮您根据文件名称或后缀来选择文件。不分大小写。
符号使用:
和:空格( )、+
不包含:-
或:|
转义:一对英文引号("");
匹配开头:^
匹配结尾:$
例如:
选中所有名称中包含有“eMule”或“0.49c”字眼,但不包含有“exe”字眼的:emule|0.49c -exe
选中所有名称的开头是“eMule”,结尾是“0.49c”的:^emule 0.49c$
选中所有名称中带有“eMule 0.49c”的(必须是“eMule 0.49c”,中间没有别的字符,不能是“eMule fake 0.49c”),需要转义:"emule 0.49c"
大小选择器帮您根据文件大小选择文件。