当前位置: 首页 >> 国产电影 >> 搏击人生[国语配音/中文字幕].Fighters.Life.2021.WEB-DL.4K.H265.AAC 1.79GB >> 正文

搏击人生[国语配音/中文字幕].Fighters.Life.2021.WEB-DL.4K.H265.AAC 1.79GB

2021年10月01日 14:02:51     电影发布:来源于网络     电影分类:国产电影     评论(0)    

搏击人生[国语配音/中文字幕].Fighters.Life.2021.WEB DL.4K.H265.AAC 1.79GB 运动 动作片 剧情片 国产电影  第1张

◎译 名 搏击人生

◎年 代 2020

◎产 地 中国大陆

◎类 别 剧情 / 动作 / 运动

◎语 言 汉语普通话

◎上映日期 2021-09-09(中国大陆)

◎IMDb链接 https://www.imdb.com/title//

◎豆瓣链接 https://movie.douban.com/subject/35049322/

◎编 剧 杨明腾 Mingteng Yang (id:1385653)

◎标 签 lglmsg5853

◎简 介

特立独行的重庆女孩夏芸,为摆脱生活困境,通过坚持不懈地练习搏击,从而结识了好友张若萱,并联手抵抗赛事“黑手”金老板,最终赢得MMA冠军的故事。

  1. ##### MediaInfo ######

  2. General

  3. Unique ID : 171382157599012660997396992118913736764 (0x80EF00BFB772D1D4A5EA9CF3136FA03C)

  4. Complete name : Fighters Life 2021 WEB-DL 4K H265 [email protected]

  5. Format : Matroska

  6. Format version : Version 4

  7. File size : 1.79 GiB

  8. Duration : 1 h 12 min

  9. Overall bit rate : 3 545 kb/s

  10. Encoded date : UTC 2021-09-29 19:36:59

  11. Writing application : mkvmerge v58.0.0 ('Supper's Ready') 64-bit

  12. Writing library : libebml v1.4.2 + libmatroska v1.6.4


  13. Video

  14. ID : 1

  15. Format : HEVC

  16. Format/Info : High Efficiency Video Coding

  17. Format profile : [email protected]@Main

  18. Codec ID : V_MPEGH/ISO/HEVC

  19. Duration : 1 h 12 min

  20. Bit rate : 3 352 kb/s

  21. Width : 3 840 pixels

  22. Height : 1 632 pixels

  23. Display aspect ratio : 2.35:1

  24. Frame rate mode : Constant

  25. Frame rate : 24.000 FPS

  26. Color space : YUV

  27. Chroma subsampling : 4:2:0

  28. Bit depth : 8 bits

  29. Bits/(Pixel*Frame) : 0.022

  30. Stream size : 1.69 GiB (95%)

  31. Default : Yes

  32. Forced : No


  33. Audio

  34. ID : 2

  35. Format : AAC LC

  36. Format/Info : Advanced Audio Codec Low Complexity

  37. Codec ID : A_AAC-2

  38. Duration : 1 h 12 min

  39. Bit rate : 192 kb/s

  40. Channel(s) : 2 channels

  41. Channel layout : L R

  42. Sampling rate : 44.1 kHz

  43. Frame rate : 43.066 FPS (1024 SPF)

  44. Compression mode : Lossy

  45. Stream size : 98.1 MiB (5%)

  46. Language : Chinese

  47. Default : Yes

  48. Forced : No


  49. Text #1

  50. ID : 3

  51. Format : UTF-8

  52. Codec ID : S_TEXT/UTF8

  53. Codec ID/Info : UTF-8 Plain Text

  54. Duration : 1 h 10 min

  55. Bit rate : 41 b/s

  56. Count of elements : 1184

  57. Stream size : 21.4 KiB (0%)

  58. Title : 简体中文

  59. Language : Chinese

  60. Default : Yes

  61. Forced : No


  62. Text #2

  63. ID : 4

  64. Format : UTF-8

  65. Codec ID : S_TEXT/UTF8

  66. Codec ID/Info : UTF-8 Plain Text

  67. Duration : 1 h 10 min

  68. Bit rate : 40 b/s

  69. Count of elements : 1164

  70. Stream size : 21.1 KiB (0%)

  71. Title : 繁体中文

  72. Language : Chinese

  73. Default : No

  74. Forced : No


  75. Text #3

  76. ID : 5

  77. Format : UTF-8

  78. Codec ID : S_TEXT/UTF8

  79. Codec ID/Info : UTF-8 Plain Text

  80. Duration : 1 h 10 min

  81. Bit rate : 53 b/s

  82. Count of elements : 1215

  83. Stream size : 27.8 KiB (0%)

  84. Title : 英语

  85. Language : English

  86. Default : No

  87. Forced : No


  88. Text #4

  89. ID : 6

  90. Format : UTF-8

  91. Codec ID : S_TEXT/UTF8

  92. Codec ID/Info : UTF-8 Plain Text

  93. Duration : 1 h 10 min

  94. Bit rate : 58 b/s

  95. Count of elements : 1215

  96. Stream size : 30.6 KiB (0%)

  97. Title : 韩语

  98. Language : Korean

  99. Default : No

  100. Forced : No


  101. Text #5

  102. ID : 7

  103. Format : UTF-8

  104. Codec ID : S_TEXT/UTF8

  105. Codec ID/Info : UTF-8 Plain Text

  106. Duration : 1 h 10 min

  107. Bit rate : 137 b/s

  108. Count of elements : 1215

  109. Stream size : 71.3 KiB (0%)

  110. Title : 泰语

  111. Language : Thai

  112. Default : No

  113. Forced : No


  114. Text #6

  115. ID : 8

  116. Format : UTF-8

  117. Codec ID : S_TEXT/UTF8

  118. Codec ID/Info : UTF-8 Plain Text

  119. Duration : 1 h 10 min

  120. Bit rate : 57 b/s

  121. Count of elements : 1215

  122. Stream size : 30.0 KiB (0%)

  123. Title : 马来语

  124. Language : Malay

  125. Default : No

  126. Forced : No


  127. Text #7

  128. ID : 9

  129. Format : UTF-8

  130. Codec ID : S_TEXT/UTF8

  131. Codec ID/Info : UTF-8 Plain Text

  132. Duration : 1 h 10 min

  133. Bit rate : 80 b/s

  134. Count of elements : 1215

  135. Stream size : 41.8 KiB (0%)

  136. Title : 越南语

  137. Language : Vietnamese

  138. Default : No

  139. Forced : No


  140. Text #8

  141. ID : 10

  142. Format : UTF-8

  143. Codec ID : S_TEXT/UTF8

  144. Codec ID/Info : UTF-8 Plain Text

  145. Duration : 1 h 10 min

  146. Bit rate : 59 b/s

  147. Count of elements : 1215

  148. Stream size : 31.0 KiB (0%)

  149. Title : 印尼语

  150. Language : Indonesian

  151. Default : No

  152. Forced : No


  153. Text #9

  154. ID : 11

  155. Format : UTF-8

  156. Codec ID : S_TEXT/UTF8

  157. Codec ID/Info : UTF-8 Plain Text

  158. Duration : 1 h 10 min

  159. Bit rate : 48 b/s

  160. Count of elements : 1184

  161. Stream size : 25.1 KiB (0%)

  162. Title : 西班牙语

  163. Language : Spanish

  164. Default : No

  165. Forced : No




复制代码



文件下载


除非特别注明,本文『搏击人生[国语配音/中文字幕].Fighters.Life.2021.WEB-DL.4K.H265.AAC 1.79GB』来源于互联网机器人自动抓取,非本站原创。 浮游电影网不对本文拥有版权,如有侵犯,请联系邮箱:fuyouu#yandex.com[#换成@]投诉。我们会在15个工作日内删除。 但烦请转载时请标明出处:“本文转载于『浮游电影网』,原文地址:https://www.fuyouu.com/14681.html

评论吧骚年!

发表你的见解   

昵称*

E-mail*(建议输入,以便收到博主回复的提示邮件)

验证码*

您可以使用eMule或eMule Mod(Windows)、aMule(Win、Linux、Mac)等软件下载eD2k链接。。
eMule收藏集(.emulecollection)文件是您选中的所有链接的列表文件。eMule可以直接下载它们。
按住SHIFT键选择可以选中多个选择框。
可用文件名和大小选择器来选择文件。
文件名选择器帮您根据文件名称或后缀来选择文件。不分大小写。
符号使用:
和:空格( )、+
不包含:-
或:|
转义:一对英文引号("");
匹配开头:^
匹配结尾:$
例如:
选中所有名称中包含有“eMule”或“0.49c”字眼,但不包含有“exe”字眼的:emule|0.49c -exe
选中所有名称的开头是“eMule”,结尾是“0.49c”的:^emule 0.49c$
选中所有名称中带有“eMule 0.49c”的(必须是“eMule 0.49c”,中间没有别的字符,不能是“eMule fake 0.49c”),需要转义:"emule 0.49c"
大小选择器帮您根据文件大小选择文件。